当前位置: 首页 >> 欧美电影 >> 极速60秒[国英多音轨/中英字幕].Gone.in.60.Seconds.2000.BluRay.1080p.x265.2Audio-MiniHD 3.57GB >> 正文

极速60秒[国英多音轨/中英字幕].Gone.in.60.Seconds.2000.BluRay.1080p.x265.2Audio-MiniHD 3.57GB

2022年05月13日 23:23:30     电影发布:来源于网络     电影分类:欧美电影     评论(0)    

◎译 名 极速60秒 / 惊天动地60秒(台)

◎片 名 Gone in 60 Seconds

◎年 代 2000

◎产 地 美国

◎类 别 动作 / 惊悚 / 犯罪

◎语 言 英语

◎上映日期 2000-06-08(美国)

◎IMDb链接 https://www.imdb.com/title/tt0187078/

◎豆瓣评分 7.4/10 (48090人评价)

◎豆瓣链接 https://movie.douban.com/subject/1298189/

◎片 长 118 分钟

◎导 演 多米尼克·塞纳 Dominic Sena (id:1045114)

◎编 剧 斯科特·罗森伯格 Scott Rosenberg (id:1045248)

H·B·哈里奇 H.B. Halicki (id:1028136)

◎演 员 尼古拉斯·凯奇 Nicolas Cage (id:1054455)

吉奥瓦尼·瑞比西 Giovanni Ribisi (id:1036317)

安吉丽娜·朱莉 Angelina Jolie (id:1054447)

威廉姆·李·斯科特 William Lee Scott (id:1009378)

斯科特·凯恩 Scott Caan (id:1049550)

詹姆斯·杜瓦尔 James Duval (id:1055541)

威尔·帕顿 Will Patton (id:1019066)

德尔罗伊·林多 Delroy Lindo (id:1040621)

蒂莫西·奥利芬特 Timothy Olyphant (id:1044704)

齐·麦克布赖德 Chi McBride (id:1116510)

罗伯特·杜瓦尔 Robert Duvall (id:1013776)

克里斯托弗·埃克莱斯顿 Christopher Eccleston (id:1006990)

维尼·琼斯 Vinnie Jones (id:1013804)

格蕾丝·扎布里斯基 Grace Zabriskie (id:1167026)

哈里·范·戈库姆 Harry Van Gorkum (id:1276202)

Veronica Grey Veronica Grey (id:1217572)

斯蒂芬·谢伦 Stephen Shellen (id:1146519)

鲍勃萨特勒 Bob Sattler (id:1146386)

Drew Renkewitz Drew Renkewitz (id:1148209)

凯文·韦斯特 Kevin West (id:1165462)

约翰·卡洛·林奇 John Carroll Lynch (id:1025224)

杰米·伯格曼 Jaime Bergman (id:1027254)

布拉德·威廉姆·亨克 Brad William Henke (id:1002801)

凯文·韦斯曼 Kevin Weisman (id:1014032)

隆巴多·博伊尔 Lombardo Boyar (id:1077918)

迈克尔·佩纳 Michael Pe?a (id:1131634)

Michael Owen Michael Owen (id:1129593)

格雷格·科林斯 Greg Collins (id:1071934)

卡门·阿尔根齐亚诺 Carmen Argenziano (id:1057303)

博德希·埃夫曼 Bodhi Elfman (id:1056107)

斯科特·罗森伯格 Scott Rosenberg (id:1045248)

弗兰西丝·费舍 Frances Fisher (id:1048158)

Master P Master P (id:1048239)

科西莫·福斯科 Cosimo Fusco (id:1081446)

David 'Shark' Fralick David 'Shark' Fralick (id:1085724)

Billy Devlin Billy Devlin (id:1085846)

C.J. Picerni C.J. Picerni (id:1126807)

布莱恩·麦克纳玛拉 Brian McNamara (id:1041203)

肯·詹金斯 Ken Jenkins (id:1111439)

阿尔耶·格罗斯 Arye Gross (id:1101427)

Michael Gerald Michael Gerald (id:1094741)

路易斯·海尔 Lois Hall (id:1092122)

特雷沃·格德达德 Trevor Goddard (id:1091681)

杰瑞·布鲁克海默 Jerry Bruckheimer (id:1049617)

乔纳森·汉斯雷 Jonathan Hensleigh (id:1286460)

Aristides McGarry Aristides McGarry (id:1291566)

特沃·拉宾 Trevor Rabin (id:1014253)

保罗·卡梅隆 Paul Cameron (id:1018599)

罗杰·巴顿 Roger Barton (id:1421372)

克里斯·莱本森 Chris Lebenzon (id:1041806)

杰夫·曼恩 Jeff Mann (id:1051023)

安德鲁·洛斯 Andrew Laws (id:1005999)

玛琳·斯图尔特 Marlene Stewart (id:1051194)

Randy Westgate Randy Westgate (id:1300743)

Julie Pearce Julie Pearce (id:1294166)

克林顿·维恩 Clinton Wayne (id:1055970)

Erwin H. Kupitz Erwin H. Kupitz (id:1289083)

帕特里夏·安德罗夫 Patricia Androff (id:1277266)

Christian Clarke Christian Clarke (id:1051738)

Lisa C. Satriano Lisa C. Satriano (id:1276451)

尼克·萨特里亚诺 Nick Satriano (id:1001542)

唐纳德·斯帕克斯 Donald Sparks (id:1012771)

Erich Turner Erich Turner (id:1159370)

Jennifer Meislohn Jennifer Meislohn (id:1121992)

Shannon Casey Shannon Casey (id:1280233)

布莱恩·康纳 Brian Connor (id:1281143)

Elizabeth Meyer Elizabeth Meyer (id:1118323)

R. Christopher Biggs R. Christopher Biggs (id:1062839)

迪安·莱特 Dean Wright (id:1301299)

内森·麦克基尼斯 Nathan McGuinness (id:1291611)

Jeff Olm Jeff Olm (id:1055723)

Chris Keene Chris Keene (id:1112449)

博伊德·谢尔米斯 Boyd Shermis (id:1297440)

◎简 介

孟菲斯(尼古拉斯?凯奇 Nicolas Cage 饰)是这个世界上最高明的窃车贼,人们形容他为“gone in 60 seconds”,即只要他盯上的车停在这里,他60秒内便能连人带车一起消失得无影无踪。孟菲斯终究厌倦了窃车贼的虽然惊险刺激但重压在身的生活,宣布金盘洗手 了。但他的弟弟却想步其后尘,不料很快就卷入了一次黑帮危险的交易中。孟菲斯为了救出兄弟,只好重操旧业,答应黑帮一晚内偷来50辆车。

不料,警察正在密切监视着孟菲斯。当他偷得最后一辆野马跑车时,警车、警察直升机尾随而至,展开了一场马路追逐……

  1. ##### MediaInfo ######

  2. General

  3. Unique ID : 208943923708910777492206619989331493039 (0x9D3122CCC251E62A8AE21E2E316940AF)

  4. Complete name : Gone.in.60.Seconds.2000.BluRay.1080p.x265.2Audio-MiniHD.mkv

  5. Format : Matroska

  6. Format version : Version 4

  7. File size : 3.57 GiB

  8. Duration : 1 h 57 min

  9. Overall bit rate : 4 330 kb/s

  10. Encoded date : UTC 2015-02-16 01:09:39

  11. Writing application : mkvmerge v7.2.0 ('On Every Street') 32bit built on Sep 13 2014 15:42:11

  12. Writing library : libebml v1.3.0 + libmatroska v1.4.1

  13. Video

  14. ID : 1

  15. Format : HEVC

  16. Format/Info : High Efficiency Video Coding

  17. Codec ID : V_MPEGH/ISO/HEVC

  18. Duration : 1 h 57 min

  19. Bit rate : 3 492 kb/s

  20. Width : 1 920 pixels

  21. Height : 816 pixels

  22. Display aspect ratio : 2.35:1

  23. Frame rate mode : Constant

  24. Frame rate : 23.976 (24000/1001/53354) FPS

  25. Bits/(Pixel*Frame) : 0.093

  26. Stream size : 2.88 GiB (81%)

  27. Default : Yes

  28. Forced : No

  29. Audio #1

  30. ID : 2

  31. Format : AAC LC

  32. Format/Info : Advanced Audio Codec Low Complexity

  33. Codec ID : A_AAC-2

  34. Duration : 1 h 57 min

  35. Bit rate : 398 kb/s

  36. Channel(s) : 6 channels

  37. Channel layout : C L R Ls Rs LFE

  38. Sampling rate : 48.0 kHz

  39. Frame rate : 46.875 FPS (1024 SPF)

  40. Compression mode : Lossy

  41. Delay relative to video : 20 ms

  42. Stream size : 336 MiB (9%)

  43. Language : English

  44. Default : Yes

  45. Forced : No

  46. Audio #2

  47. ID : 3

  48. Format : AAC LC

  49. Format/Info : Advanced Audio Codec Low Complexity

  50. Codec ID : A_AAC-2

  51. Duration : 1 h 57 min

  52. Bit rate : 396 kb/s

  53. Channel(s) : 6 channels

  54. Channel layout : C L R Ls Rs LFE

  55. Sampling rate : 48.0 kHz

  56. Frame rate : 46.875 FPS (1024 SPF)

  57. Compression mode : Lossy

  58. Delay relative to video : 20 ms

  59. Stream size : 334 MiB (9%)

  60. Language : Chinese

  61. Default : No

  62. Forced : No

  63. Text #1

  64. ID : 4

  65. Format : PGS

  66. Muxing mode : zlib

  67. Codec ID : S_HDMV/PGS

  68. Codec ID/Info : Picture based subtitle format used on BDs/HD-DVDs

  69. Duration : 1 h 48 min

  70. Bit rate : 9 460 b/s

  71. Count of elements : 1766

  72. Stream size : 7.33 MiB (0%)

  73. Language : English

  74. Default : Yes

  75. Forced : No

  76. Text #2

  77. ID : 5

  78. Format : PGS

  79. Muxing mode : zlib

  80. Codec ID : S_HDMV/PGS

  81. Codec ID/Info : Picture based subtitle format used on BDs/HD-DVDs

  82. Duration : 1 h 51 min

  83. Bit rate : 7 548 b/s

  84. Count of elements : 2029

  85. Stream size : 6.01 MiB (0%)

  86. Language : Chinese

  87. Default : No

  88. Forced : No

  89. Text #3

  90. ID : 6

  91. Format : PGS

  92. Muxing mode : zlib

  93. Codec ID : S_HDMV/PGS

  94. Codec ID/Info : Picture based subtitle format used on BDs/HD-DVDs

  95. Duration : 1 h 51 min

  96. Bit rate : 13.0 kb/s

  97. Count of elements : 3082

  98. Stream size : 10.4 MiB (0%)

  99. Language : Chinese

  100. Default : No

  101. Forced : No

  102. Text #4

  103. ID : 7

  104. Format : PGS

  105. Muxing mode : zlib

  106. Codec ID : S_HDMV/PGS

  107. Codec ID/Info : Picture based subtitle format used on BDs/HD-DVDs

  108. Duration : 1 h 51 min

  109. Bit rate : 13.2 kb/s

  110. Count of elements : 3082

  111. Stream size : 10.6 MiB (0%)

  112. Language : Chinese

  113. Default : No

  114. Forced : No

  115. Menu

  116. 00:00:00.000 : :Chapter 01

  117. 00:00:22.688 : :Chapter 02

  118. 00:03:24.412 : :Chapter 03

  119. 00:08:45.066 : :Chapter 04

  120. 00:11:54.422 : :Chapter 05

  121. 00:16:54.177 : :Chapter 06

  122. 00:18:42.871 : :Chapter 07

  123. 00:23:36.329 : :Chapter 08

  124. 00:26:49.690 : :Chapter 09

  125. 00:31:58.248 : :Chapter 10

  126. 00:33:36.971 : :Chapter 11

  127. 00:36:23.431 : :Chapter 12

  128. 00:38:42.318 : :Chapter 13

  129. 00:39:33.704 : :Chapter 14

  130. 00:42:11.362 : :Chapter 15

  131. 00:44:18.864 : :Chapter 16

  132. 00:48:42.543 : :Chapter 17

  133. 00:52:55.505 : :Chapter 18

  134. 00:53:01.885 : :Chapter 19

  135. 00:58:43.853 : :Chapter 20

  136. 01:06:14.887 : :Chapter 21

  137. 01:11:07.386 : :Chapter 22

  138. 01:13:43.167 : :Chapter 23

  139. 01:17:29.978 : :Chapter 24

  140. 01:19:38.523 : :Chapter 25

  141. 01:21:23.586 : :Chapter 26

  142. 01:26:47.118 : :Chapter 27

  143. 01:29:24.024 : :Chapter 28

  144. 01:30:42.310 : :Chapter 29

  145. 01:32:52.233 : :Chapter 30

  146. 01:34:18.652 : :Chapter 31

  147. 01:36:45.381 : :Chapter 32

  148. 01:37:44.358 : :Chapter 33

  149. 01:38:27.818 : :Chapter 34

  150. 01:39:19.161 : :Chapter 35

  151. 01:39:59.783 : :Chapter 36

  152. 01:40:06.416 : :Chapter 37

  153. 01:44:12.703 : :Chapter 38

  154. 01:48:39.261 : :Chapter 39

  155. 01:51:48.158 : :Chapter 40

  156. 01:57:55.524 : :Chapter 41


复制代码



文件下载


除非特别注明,本文『极速60秒[国英多音轨/中英字幕].Gone.in.60.Seconds.2000.BluRay.1080p.x265.2Audio-MiniHD 3.57GB』来源于互联网机器人自动抓取,非本站原创。 浮游电影网不对本文拥有版权,如有侵犯,请联系邮箱:fuyouu#yandex.com[#换成@]投诉。我们会在15个工作日内删除。 但烦请转载时请标明出处:“本文转载于『浮游电影网』,原文地址:https://www.fuyouu.com/22111.html

评论吧骚年!

发表你的见解   

昵称*

E-mail*(建议输入,以便收到博主回复的提示邮件)

验证码*

您可以使用eMule或eMule Mod(Windows)、aMule(Win、Linux、Mac)等软件下载eD2k链接。。
eMule收藏集(.emulecollection)文件是您选中的所有链接的列表文件。eMule可以直接下载它们。
按住SHIFT键选择可以选中多个选择框。
可用文件名和大小选择器来选择文件。
文件名选择器帮您根据文件名称或后缀来选择文件。不分大小写。
符号使用:
和:空格( )、+
不包含:-
或:|
转义:一对英文引号("");
匹配开头:^
匹配结尾:$
例如:
选中所有名称中包含有“eMule”或“0.49c”字眼,但不包含有“exe”字眼的:emule|0.49c -exe
选中所有名称的开头是“eMule”,结尾是“0.49c”的:^emule 0.49c$
选中所有名称中带有“eMule 0.49c”的(必须是“eMule 0.49c”,中间没有别的字符,不能是“eMule fake 0.49c”),需要转义:"emule 0.49c"
大小选择器帮您根据文件大小选择文件。