当前位置: 首页 >> 国产电影 >> 极盗者[国英多音轨/中英字幕].Point.Break.2015.BluRay.1080p.x265.10bit.2Audio-MiniHD 5.97GB >> 正文

极盗者[国英多音轨/中英字幕].Point.Break.2015.BluRay.1080p.x265.10bit.2Audio-MiniHD 5.97GB

2022年05月13日 23:22:39     电影发布:来源于网络     电影分类:国产电影     评论(0)    

◎译 名 极盗者 / 极限追捕(港) / 飙风特攻(台) / 惊爆点 / 新终极豪情

◎片 名 Point Break

◎年 代 2015

◎产 地 中国大陆 / 德国 / 美国 / 奥地利 / 意大利 / 加拿大

◎类 别 动作 / 犯罪 / 运动

◎语 言 英语 / 法语 / 西班牙语

◎上映日期 2015-12-04(中国大陆) / 2015-12-25(美国)

◎IMDb链接 https://www.imdb.com/title/tt2058673/

◎豆瓣评分 7.1/10 (105753人评价)

◎豆瓣链接 https://movie.douban.com/subject/25809384/

◎片 长 113分钟

◎导 演 埃里克松·科尔 Ericson Core (id:1281272)

◎编 剧 科特·维莫 Kurt Wimmer (id:1274260)

瑞克·金 Rick King (id:1276499)

W·彼得·伊利夫 W. Peter Iliff (id:1324299)

◎演 员 埃德加·拉米雷兹 édgar Ramírez (id:1000230)

卢克·布雷西 Luke Bracey (id:1338326)

雷·温斯顿 Ray Winstone (id:1006977)

泰莉莎·帕尔墨 Teresa Palmer (id:1031836)

马蒂亚斯·瓦雷拉 Matias Varela (id:1135870)

克雷蒙斯·施伊克 Clemens Schick (id:1320236)

托拜厄斯·桑特尔曼 Tobias Santelmann (id:1342063)

麦克斯·泰瑞奥 Max Thieriot (id:1027235)

德尔罗伊·林多 Delroy Lindo (id:1040621)

尼科莱·金斯基 Nikolai Kinski (id:1022985)

格娜萨斯·巴伯 Glynis Barber (id:1064016)

史蒂夫·图森特 Steve Toussaint (id:1154996)

詹姆斯·勒格罗 James LeGros (id:1055191)

帕特里克·德威恩 Patrick Dewayne (id:1187617)

塞马斯·F·萨金特 Seumas F. Sargent (id:1413315)

纽曼·阿卡 Numan Acar (id:1344727)

莱尔德·约翰·哈密尔顿 Laird John Hamilton (id:1032486)

克里斯森科赫 Christian Koch (id:1102881)

杰夫·伯勒尔 Jeff Burrell (id:1340580)

Francesco Martino Francesco Martino (id:1191773)

杰拉德·摩纳科 Gerard Monaco (id:1376465)

Bob Burnquist Bob Burnquist (id:1160978)

萨尔·马塞克拉 Sal Masekela (id:1050219)

布莱特·罗森博格 Brett Rosenberg (id:1296070)

史蒂夫·青木 Steve Aoki (id:1271234)

Eric Koston Eric Koston (id:1173704)

Chris Sharma Chris Sharma (id:1243221)

杰米斯·巴特勒 Jaymes Butler (id:1324699)

Manfred Callsen Manfred Callsen (id:1075660)

埃莱娜·卡多纳 Hélène Cardona (id:1344847)

理查德·艾沃特 Ricardo Ewert (id:1399683)

托拜厄斯·劳特伯格 Tobias Lauterberg (id:1105807)

犹大·刘易斯 Judah Lewis (id:1350091)

亚历山大·雅辛 Alexander Yassin (id:1395235)

丹·密茨 Dan Mintz (id:1417958)

琼基·XL Junkie XL (id:1037776)

埃里克松·科尔 Ericson Core (id:1281272)

特里·马里奥特 Terry Marriott (id:1404975)

瑞恩·艾伦 Ryan Allen (id:1247853)

◎简 介

年轻的FBI特工强尼·犹他(卢克·布雷西 Luke Bracey 饰),潜伏到一队喜欢寻找刺激挑战的盗匪里,该队伍由富有个人魅力的鲍迪(埃德加·拉米雷兹 édgar Ramírez 饰)领导。这些盗匪被怀疑是在用极不寻常的方式进行着系列犯罪。在与鲍迪这一伙人的交往中,犹他发现自己无可自拔的与这伙人产生了伙伴情谊,犹他陷入了职业伦理与追求真我之间的矛盾,他放弃了自己的一切,加入到了对人类极限界的八项巅峰挑战的追寻中……

  1. ##### MediaInfo ######

  2. General

  3. Unique ID : 248606117914545321001710700736767240943 (0xBB07CBF38B77D35F91B4FAF11BA2AAEF)

  4. Complete name : Point.Break.2015.BluRay.1080p.x265.10bit.2Audio-MiniHD.mkv

  5. Format : Matroska

  6. Format version : Version 4

  7. File size : 5.96 GiB

  8. Duration : 1 h 53 min

  9. Overall bit rate : 7 500 kb/s

  10. Encoded date : UTC 2016-04-21 03:28:48

  11. Writing application : mkvmerge v7.5.0 ('Glass Culture') 64bit built on Jan 4 2015 16:48:44

  12. Writing library : libebml v1.3.1 + libmatroska v1.4.2

  13. Video

  14. ID : 1

  15. Format : HEVC

  16. Format/Info : High Efficiency Video Coding

  17. Codec ID : V_MPEGH/ISO/HEVC

  18. Duration : 1 h 53 min

  19. Bit rate : 6 070 kb/s

  20. Width : 1 920 pixels

  21. Height : 800 pixels

  22. Display aspect ratio : 2.40:1

  23. Frame rate mode : Constant

  24. Frame rate : 23.976 (24000/1001/53354) FPS

  25. Bits/(Pixel*Frame) : 0.165

  26. Stream size : 4.83 GiB (81%)

  27. Default : Yes

  28. Forced : No

  29. Audio #1

  30. ID : 2

  31. Format : AC-3

  32. Format/Info : Audio Coding 3

  33. Commercial name : Dolby Digital

  34. Codec ID : A_AC3

  35. Duration : 1 h 53 min

  36. Bit rate mode : Constant

  37. Bit rate : 640 kb/s

  38. Channel(s) : 6 channels

  39. Channel layout : L R C LFE Ls Rs

  40. Sampling rate : 48.0 kHz

  41. Frame rate : 31.250 FPS (1536 SPF)

  42. Compression mode : Lossy

  43. Stream size : 521 MiB (9%)

  44. Language : English

  45. Service kind : Complete Main

  46. Default : Yes

  47. Forced : No

  48. Audio #2

  49. ID : 3

  50. Format : AC-3

  51. Format/Info : Audio Coding 3

  52. Commercial name : Dolby Digital

  53. Codec ID : A_AC3

  54. Duration : 1 h 53 min

  55. Bit rate mode : Constant

  56. Bit rate : 640 kb/s

  57. Channel(s) : 6 channels

  58. Channel layout : L R C LFE Ls Rs

  59. Sampling rate : 48.0 kHz

  60. Frame rate : 31.250 FPS (1536 SPF)

  61. Compression mode : Lossy

  62. Stream size : 521 MiB (9%)

  63. Language : Chinese

  64. Service kind : Complete Main

  65. Default : No

  66. Forced : No

  67. Text #1

  68. ID : 4

  69. Format : PGS

  70. Muxing mode : zlib

  71. Codec ID : S_HDMV/PGS

  72. Codec ID/Info : Picture based subtitle format used on BDs/HD-DVDs

  73. Language : English

  74. Default : Yes

  75. Forced : No

  76. Text #2

  77. ID : 5

  78. Format : PGS

  79. Muxing mode : zlib

  80. Codec ID : S_HDMV/PGS

  81. Codec ID/Info : Picture based subtitle format used on BDs/HD-DVDs

  82. Language : Chinese

  83. Default : No

  84. Forced : No

  85. Text #3

  86. ID : 6

  87. Format : PGS

  88. Muxing mode : zlib

  89. Codec ID : S_HDMV/PGS

  90. Codec ID/Info : Picture based subtitle format used on BDs/HD-DVDs

  91. Language : Chinese

  92. Default : No

  93. Forced : No

  94. Text #4

  95. ID : 7

  96. Format : PGS

  97. Muxing mode : zlib

  98. Codec ID : S_HDMV/PGS

  99. Codec ID/Info : Picture based subtitle format used on BDs/HD-DVDs

  100. Language : Chinese

  101. Default : No

  102. Forced : No

  103. Text #5

  104. ID : 8

  105. Format : PGS

  106. Muxing mode : zlib

  107. Codec ID : S_HDMV/PGS

  108. Codec ID/Info : Picture based subtitle format used on BDs/HD-DVDs

  109. Language : Chinese

  110. Default : No

  111. Forced : No

  112. Text #6

  113. ID : 9

  114. Format : PGS

  115. Muxing mode : zlib

  116. Codec ID : S_HDMV/PGS

  117. Codec ID/Info : Picture based subtitle format used on BDs/HD-DVDs

  118. Language : Chinese

  119. Default : No

  120. Forced : No

  121. Menu

  122. 00:00:00.000 : :Chapter 01

  123. 00:10:11.819 : :Chapter 02

  124. 00:21:05.138 : :Chapter 03

  125. 00:29:20.925 : :Chapter 04

  126. 00:42:44.895 : :Chapter 05

  127. 00:50:05.794 : :Chapter 06

  128. 01:03:19.462 : :Chapter 07

  129. 01:12:43.942 : :Chapter 08

  130. 01:20:40.418 : :Chapter 09

  131. 01:27:14.520 : :Chapter 10

  132. 01:32:44.350 : :Chapter 11

  133. 01:39:02.603 : :Chapter 12


复制代码



文件下载


除非特别注明,本文『极盗者[国英多音轨/中英字幕].Point.Break.2015.BluRay.1080p.x265.10bit.2Audio-MiniHD 5.97GB』来源于互联网机器人自动抓取,非本站原创。 浮游电影网不对本文拥有版权,如有侵犯,请联系邮箱:fuyouu#yandex.com[#换成@]投诉。我们会在15个工作日内删除。 但烦请转载时请标明出处:“本文转载于『浮游电影网』,原文地址:https://www.fuyouu.com/22110.html

评论吧骚年!

发表你的见解   

昵称*

E-mail*(建议输入,以便收到博主回复的提示邮件)

验证码*

您可以使用eMule或eMule Mod(Windows)、aMule(Win、Linux、Mac)等软件下载eD2k链接。。
eMule收藏集(.emulecollection)文件是您选中的所有链接的列表文件。eMule可以直接下载它们。
按住SHIFT键选择可以选中多个选择框。
可用文件名和大小选择器来选择文件。
文件名选择器帮您根据文件名称或后缀来选择文件。不分大小写。
符号使用:
和:空格( )、+
不包含:-
或:|
转义:一对英文引号("");
匹配开头:^
匹配结尾:$
例如:
选中所有名称中包含有“eMule”或“0.49c”字眼,但不包含有“exe”字眼的:emule|0.49c -exe
选中所有名称的开头是“eMule”,结尾是“0.49c”的:^emule 0.49c$
选中所有名称中带有“eMule 0.49c”的(必须是“eMule 0.49c”,中间没有别的字符,不能是“eMule fake 0.49c”),需要转义:"emule 0.49c"
大小选择器帮您根据文件大小选择文件。