当前位置: 首页 >> 动画电影 >> 熊出没之过年[国语音轨/中文字幕].Boonie.Bears.Homeward.Journey.2013.CHINESE.1080p.BluRay.x264.DTS-NOGRP 6.48GB >> 正文

熊出没之过年[国语音轨/中文字幕].Boonie.Bears.Homeward.Journey.2013.CHINESE.1080p.BluRay.x264.DTS-NOGRP 6.48GB

2022年05月13日 23:20:21     电影发布:来源于网络     电影分类:动画电影     评论(0)    

熊出没之过年[国语音轨/中文字幕].Boonie.Bears.Homeward.Journey.2013.CHINESE.1080p.BluRay.x264.DTS NOGRP 6.48GB  动画电影  第1张

熊出没之过年[国语音轨/中文字幕].Boonie.Bears.Homeward.Journey.2013.CHINESE.1080p.BluRay.x264.DTS NOGRP 6.48GB  动画电影  第2张

◎译 名 熊出没之过年 / Boonie Bears: Homeward Journey

◎年 代 2013

◎产 地 中国大陆

◎类 别 剧情 / 喜剧 / 动画 / 家庭 / 儿童 / 冒险

◎语 言 汉语普通话

◎上映日期 2013-02-08(中国大陆)

◎IMDb链接 https://www.imdb.com/title/tt2943974/

◎豆瓣评分 8.4/10 (20593人评价)

◎豆瓣链接 https://movie.douban.com/subject/21359690/

◎片 长 68分钟

◎导 演 丁亮 Liang Ding (id:1336904)

◎编 剧 刘富源 Fuyuan Liu (id:1336905)

黄慧琦 Huiqi Huang (id:1381861)

◎演 员 张秉君 Bingjun Zhang (id:1336919)

张伟 Wei Zhang (id:1336920)

辛媛 Yuan Xin (id:1336938)

万丹青 Danqing Wan (id:1336937)

谭笑 Xiao Tan (id:1336930)

刘思奇 Siqi Liu (id:1336939)

马浩伦 Haolun Ma (id:1336936)

王雨暄 Yuxuan Wang (id:1449195)

陈光 Guang Chen (id:1447924)

◎简 介

春节将至,外出工作的人都归心似箭,匆匆赶回家中和亲人团聚。光头强(葛平 配音)因为没钱买回家的车票,只能替李老板(张伟 配音)砍树来赚取路费。熊大(张伟 配音)和熊二(张秉君 配音)得知他们赖以生存的家园又要遭到光头强的破坏,于是组织了一干动物们,在光头强砍树的机器上做了手脚,机器坏了,光头强砍树的计划自然泡了汤。

无法砍树,拿不到工钱,这也就意味着光头强可能今年没办法回家过年了。得知此事,熊大和熊二动了恻隐之心,尽管光头强和他们平日里斗智斗勇,是一对冤家,但两头熊还是决定在这个节骨眼上帮助他。它们将坏掉的伐木机改装成为了汽车,打晕了光头强想要送他回家,由此引发了一连串的笑话。

  1. Video

  2. ID : 1

  3. Format : AVC

  4. Format/Info : Advanced Video Codec

  5. Format profile : [email protected]

  6. Format settings : CABAC / 4 Ref Frames

  7. Format settings, CABAC : Yes

  8. Format settings, Reference frames : 4 frames

  9. Codec ID : V_MPEG4/ISO/AVC

  10. Duration : 1 h 8 min

  11. Bit rate : 9 900 kb/s

  12. Width : 1 920 pixels

  13. Height : 1 080 pixels

  14. Display aspect ratio : 16:9

  15. Frame rate mode : Constant

  16. Frame rate : 25.000 FPS

  17. Color space : YUV

  18. Chroma subsampling : 4:2:0

  19. Bit depth : 8 bits

  20. Scan type : Progressive

  21. Bits/(Pixel*Frame) : 0.191

  22. Stream size : 4.71 GiB (73%)

  23. Title : MPEG-4 [email protected] Profile L4.1, 25 fps @ 9900 kbps

  24. Writing library : x264 core 146 r2538 121396c

  25. Encoding settings : cabac=1 / ref=4 / deblock=1:-3:-3 / analyse=0x3:0x133 / me=umh / subme=11 / psy=1 / psy_rd=1.00:0.00 / mixed_ref=1 / me_range=32 / chroma_me=1 / trellis=2 / 8x8dct=1 / cqm=0 / deadzone=21,11 / fast_pskip=0 / chroma_qp_offset=-2 / threads=6 / lookahead_threads=1 / sliced_threads=0 / nr=0 / decimate=0 / interlaced=0 / NTMzNTQ= / bluray_compat=0 / constrained_intra=0 / bframes=6 / b_pyramid=2 / b_adapt=2 / b_bias=0 / direct=3 / weightb=1 / open_gop=0 / weightp=2 / keyint=250 / keyint_min=25 / NTMzNTQ=uuDQuD2mJt9fsCf / scenecut=40 / intra_refresh=0 / rc_lookahead=60 / rc=2pass / mbtree=1 / bitrate=9900 / ratetol=1.0 / qcomp=0.60 / qpmin=0 / qpmax=69 / qpstep=4 / cplxblur=20.0 / qblur=0.5 / vbv_maxrate=45000 / vbv_bufsize=45000 / nal_hrd=none / filler=0 / NTMzNTQ=LmsMAP37EqsCpk / ip_ratio=1.40 / aq=1:0.60

  26. Language : English

  27. Default : Yes

  28. Forced : No


  29. Audio #1

  30. ID : 2

  31. Format : DTS XLL

  32. Format/Info : Digital Theater Systems

  33. Commercial name : DTS-HD Master Audio

  34. Codec ID : A_DTS

  35. Duration : 1 h 8 min

  36. Bit rate mode : Variable

  37. Bit rate : 1 831 kb/s

  38. Channel(s) : 2 channels

  39. Channel layout : L R

  40. Sampling rate : 48.0 kHz

  41. Frame rate : 93.750 FPS (512 SPF)

  42. Bit depth : 24 bits

  43. Compression mode : Lossless

  44. Stream size : 892 MiB (13%)

  45. Title : Mandarin DTS-HD Master Audio 2.0 @ 1832 kbps 原盘国语

  46. Language : Chinese

  47. Default : No

  48. Forced : No


  49. Audio #2

  50. ID : 3

  51. Format : DTS XLL

  52. Format/Info : Digital Theater Systems

  53. Commercial name : DTS-HD Master Audio

  54. Codec ID : A_DTS

  55. Duration : 1 h 8 min

  56. Bit rate mode : Variable

  57. Bit rate : 1 869 kb/s

  58. Channel(s) : 2 channels

  59. Channel layout : L R

  60. Sampling rate : 48.0 kHz

  61. Frame rate : 93.750 FPS (512 SPF)

  62. Bit depth : 24 bits

  63. Compression mode : Lossless

  64. Stream size : 910 MiB (14%)

  65. Title : English DTS-HD Master Audio 2.0 @ 1832 kbps

  66. Language : English

  67. Default : No

  68. Forced : No


  69. Text #1

  70. ID : 4

  71. Format : UTF-8

  72. Codec ID : S_TEXT/UTF8

  73. Codec ID/Info : UTF-8 Plain Text

  74. Duration : 1 h 6 min

  75. Bit rate : 62 b/s

  76. Count of elements : 930

  77. Stream size : 30.2 KiB (0%)

  78. Language : English

  79. Default : Yes

  80. Forced : No


  81. Text #2

  82. ID : 5

  83. Format : PGS

  84. Muxing mode : zlib

  85. Codec ID : S_HDMV/PGS

  86. Codec ID/Info : Picture based subtitle format used on BDs/HD-DVDs

  87. Duration : 1 h 6 min

  88. Bit rate : 34.6 kb/s

  89. Count of elements : 1371

  90. Stream size : 16.4 MiB (0%)

  91. Title : Chs/SUP 原盘简体

  92. Language : Chinese

  93. Default : No

  94. Forced : No


  95. Text #3

  96. ID : 6

  97. Format : PGS

  98. Muxing mode : zlib

  99. Codec ID : S_HDMV/PGS

  100. Codec ID/Info : Picture based subtitle format used on BDs/HD-DVDs

  101. Duration : 1 h 6 min

  102. Bit rate : 48.3 kb/s

  103. Count of elements : 1437

  104. Stream size : 22.8 MiB (0%)

  105. Title : Eng/SUP

  106. Language : English

  107. Default : No

  108. Forced : No


  109. Menu

  110. 00:00:00.000 : en:00:00:00.000

  111. 00:16:03.480 : en:00:16:03.480

  112. 00:35:10.440 : en:00:35:10.440

  113. 00:51:31.120 : en:00:51:31.120

复制代码

熊出没之过年[国语音轨/中文字幕].Boonie.Bears.Homeward.Journey.2013.CHINESE.1080p.BluRay.x264.DTS NOGRP 6.48GB  动画电影  第3张 熊出没之过年[国语音轨/中文字幕].Boonie.Bears.Homeward.Journey.2013.CHINESE.1080p.BluRay.x264.DTS NOGRP 6.48GB  动画电影  第4张 熊出没之过年[国语音轨/中文字幕].Boonie.Bears.Homeward.Journey.2013.CHINESE.1080p.BluRay.x264.DTS NOGRP 6.48GB  动画电影  第5张



文件下载


除非特别注明,本文『熊出没之过年[国语音轨/中文字幕].Boonie.Bears.Homeward.Journey.2013.CHINESE.1080p.BluRay.x264.DTS-NOGRP 6.48GB』来源于互联网机器人自动抓取,非本站原创。 浮游电影网不对本文拥有版权,如有侵犯,请联系邮箱:fuyouu#yandex.com[#换成@]投诉。我们会在15个工作日内删除。 但烦请转载时请标明出处:“本文转载于『浮游电影网』,原文地址:https://www.fuyouu.com/22108.html

评论吧骚年!

发表你的见解   

昵称*

E-mail*(建议输入,以便收到博主回复的提示邮件)

验证码*

您可以使用eMule或eMule Mod(Windows)、aMule(Win、Linux、Mac)等软件下载eD2k链接。。
eMule收藏集(.emulecollection)文件是您选中的所有链接的列表文件。eMule可以直接下载它们。
按住SHIFT键选择可以选中多个选择框。
可用文件名和大小选择器来选择文件。
文件名选择器帮您根据文件名称或后缀来选择文件。不分大小写。
符号使用:
和:空格( )、+
不包含:-
或:|
转义:一对英文引号("");
匹配开头:^
匹配结尾:$
例如:
选中所有名称中包含有“eMule”或“0.49c”字眼,但不包含有“exe”字眼的:emule|0.49c -exe
选中所有名称的开头是“eMule”,结尾是“0.49c”的:^emule 0.49c$
选中所有名称中带有“eMule 0.49c”的(必须是“eMule 0.49c”,中间没有别的字符,不能是“eMule fake 0.49c”),需要转义:"emule 0.49c"
大小选择器帮您根据文件大小选择文件。