当前位置: 首页 >> 欧美电影 >> 赛末点[简繁英字幕].Match.Point.2005.FRA.1080p.BluRay.x265.10bit.FLAC2.0--MiniHD 5.86GB >> 正文

赛末点[简繁英字幕].Match.Point.2005.FRA.1080p.BluRay.x265.10bit.FLAC2.0--MiniHD 5.86GB

2022年05月13日 23:19:24     电影发布:来源于网络     电影分类:欧美电影     评论(0)    

◎译 名 赛末点 / 迷失决胜分(港) / 爱情决胜点(台) / 赛点

◎片 名 Match Point

◎年 代 2005

◎产 地 英国 / 美国 / 爱尔兰 / 卢森堡

◎类 别 剧情 / 爱情 / 悬疑 / 犯罪

◎语 言 英语

◎上映日期 2005-05-12(戛纳电影节) / 2005-12-18(英国首映)

◎IMDb链接 https://www.imdb.com/title/tt0416320/

◎豆瓣评分 8.1/10 (163068人评价)

◎豆瓣链接 https://movie.douban.com/subject/1433577/

◎片 长 124 分钟

◎导 演 伍迪·艾伦 Woody Allen (id:1054430)

◎编 剧 伍迪·艾伦 Woody Allen (id:1054430)

◎演 员 乔纳森·莱斯·梅耶斯 Jonathan Rhys Meyers (id:1012518)

斯嘉丽·约翰逊 Scarlett Johansson (id:1054453)

马修·古迪 Matthew Goode (id:1000008)

艾米莉·莫迪默 Emily Mortimer (id:1036322)

布莱恩·考克斯 Brian Cox (id:1019027)

米兰达·莱森 Miranda Raison (id:1148600)

斯科特·汉迪 Scott Handy (id:1101207)

玛格丽特·提扎克 Margaret Tyzack (id:1156265)

乔治娜·查普曼 Georgina Chapman (id:1324309)

托比·凯贝尔 Toby Kebbell (id:1010533)

史蒂夫·佩姆伯顿 Steve Pemberton (id:1049915)

艾文·布莱纳 Ewen Bremner (id:1004679)

佐伊·特尔福德 Zoe Telford (id:1315346)

罗斯·基冈 Rose Keegan (id:1108184)

约翰·福琼 John Fortune (id:1012712)

亚历山大·阿姆斯特朗 Alexander Armstrong (id:1057911)

保罗·凯耶 Paul Kaye (id:1288269)

佩内洛普·威尔顿 Penelope Wilton (id:1018190)

马克·加蒂斯 Mark Gatiss (id:1027973)

鲁伯特·彭利-琼斯 Rupert Penry-Jones (id:1136688)

科林·萨蒙 Colin Salmon (id:1314721)

詹姆斯·内斯比特 James Nesbitt (id:1013997)

瑟琳娜·卡德尔 Selina Cadell (id:1434311)

露西·达尔文 Lucy Darwin (id:1281825)

莱米·阿德法拉希恩 Remi Adefarasin (id:1276188)

Alisa Lepselter Alisa Lepselter (id:1289822)

帕特丽夏·迪塞尔托 Patricia DiCerto (id:1408139)

茱莉叶·泰勒 Juliet Taylor (id:1299000)

吉姆·克雷 Jim Clay (id:1280877)

卡罗琳·史密斯 Caroline Smith (id:1297855)

吉尔·泰勒 Jill Taylor (id:1298993)

Sallie Jaye Sallie Jaye (id:1287636)

◎简 介

穷小子威尔顿(乔纳森?莱斯?迈勒斯)为改变自己的命运,从爱尔兰来到伦敦当起网球教练,立誓要凭一身网球绝技混入对该运动情有独钟的上流社会。结识富家公子哥汤姆后,他得到机会,对方的妹妹克罗伊(艾米莉?莫蒂梅尔)对他一见钟情,其后,在对方的父亲的相助下,威尔顿顺利混入上流社会。

正当要与克罗伊谈婚论嫁时,威尔顿邂逅汤姆的女友、来自美国的女演员诺拉(斯嘉丽?约翰逊),后者同样在为进入上流社会做着不懈的努力。相似经历令两人萌生真情,但威尔顿并没为诺拉放弃自己的计划。一切梦想都成真后,威尔顿重遇已与汤姆分手的诺拉,两人旧情复燃,威尔顿开始在她与妻子之间周旋。不久,诺拉怀孕坚拒堕胎,威尔顿迎来人生的赛点。

◎获奖情况 (共5项)

第78届奥斯卡金像奖 (2006)

最佳原创剧本(提名)

└──伍迪·艾伦 (id:1054430)

第63届金球奖 (2006)

电影类 最佳剧情片(提名)

电影类 最佳导演(提名)

└──伍迪·艾伦 (id:1054430)

电影类 最佳女配角(提名)

└──斯嘉丽·约翰逊 (id:1054453)

电影类 最佳编剧(提名)

└──伍迪·艾伦 (id:1054430)

  1. ##### MediaInfo ######

  2. General

  3. Unique ID : 37174968576122179617039234073982662841 (0x1BF7A375CCE44CAFCC53E9AE86B7F8B9)

  4. Complete name : Match.Point.2005.FRA.1080p.BluRay.x265.10bit.FLAC2.0--MiniHD.mkv

  5. Format : Matroska

  6. Format version : Version 4

  7. File size : 5.86 GiB

  8. Duration : 2 h 3 min

  9. Overall bit rate mode : Variable

  10. Overall bit rate : 6 764 kb/s

  11. Movie name : Match.Point.2005.FRA.1080p.BluRay.x265.10bit.FLAC2.0-MNHD-FRDS

  12. Encoded date : UTC 2022-05-12 02:03:21

  13. Writing application : mkvmerge v66.0.0 ('Josie') 64-bit

  14. Writing library : libebml v1.4.2 + libmatroska v1.6.4

  15. Video

  16. ID : 1

  17. Format : HEVC

  18. Format/Info : High Efficiency Video Coding

  19. Format profile : Main [email protected]@High

  20. Codec ID : V_MPEGH/ISO/HEVC

  21. Duration : 2 h 3 min

  22. Bit rate : 6 466 kb/s

  23. Width : 1 916 pixels

  24. Height : 1 040 pixels

  25. Display aspect ratio : 1.85:1

  26. Frame rate mode : Constant

  27. Frame rate : 23.976 (24000/1001/53354) FPS

  28. Color space : YUV

  29. Chroma subsampling : 4:2:0

  30. Bit depth : 10 bits

  31. Bits/(Pixel*Frame) : 0.135

  32. Stream size : 5.60 GiB (96%)

  33. Writing library : x265 3.5+29-3415705dd:[Windows][MSVC 1930][64 bit] 10bit

  34. Encoding settings : cpuid=533541111039 / frame-threads=5 / numa-pools=32 / wpp / pmode / no-pme / no-psnr / no-ssim / log-level=2 / input-csp=1 / input-res=1916x1040 / interlace=0 / total-frames=178352 / level-idc=0 / high-tier=1 / uhd-bd=0 / ref=6 / no-allow-non-conformance / no-repeat-headers / annexb / no-aud / no-eob / no-eos / no-hrd / info / hash=0 / no-temporal-layers / no-open-gop / min-keyint=1 / keyint=250 / gop-lookahead=0 / bframes=8 / b-adapt=2 / b-pyramid / bframe-bias=0 / rc-lookahead=100 / lookahead-slices=0 / NTMzNTQ=uuDQuD2mJt9fsCf / scenecut=40 / no-hist-scenecut / radl=0 / no-splice / no-intra-refresh / ctu=32 / min-cu-size=8 / no-rect / no-amp / max-tu-size=32 / tu-inter-depth=4 / tu-intra-depth=4 / limit-tu=0 / rdoq-level=2 / dynamic-rd=0.00 / no-ssim-rd / signhide / no-tskip / nr-intra=0 / nr-inter=0 / no-constrained-intra / no-strong-intra-smoothing / max-merge=5 / limit-refs=0 / no-limit-modes / me=3 / subme=7 / merange=57 / temporal-mvp / no-frame-dup / no-hme / weightp / weightb / no-analyze-src-pics / deblock=-3:-3 / no-sao / no-sao-non-deblock / rd=4 / selective-sao=0 / no-early-skip / no-rskip / no-fast-intra / no-tskip-fast / no-cu-lossless / b-intra / no-splitrd-skip / rdpenalty=0 / psy-rd=1.50 / psy-rdoq=1.00 / no-rd-refine / no-lossless / cbqpoffs=-2 / crqpoffs=-2 / rc=crf / crf=21.0 / qcomp=0.65 / qpstep=4 / stats-write=0 / stats-read=0 / vbv-maxrate=160000 / vbv-bufsize=160000 / vbv-init=0.9 / min-vbv-fullness=50.0 / max-vbv-fullness=80.0 / crf-max=0.0 / crf-min=0.0 / ipratio=1.30 / pbratio=1.20 / aq-mode=1 / aq-strength=1.00 / no-cutree / zone-count=0 / no-strict-cbr / qg-size=8 / no-rc-grain / qpmax=69 / qpmin=0 / no-const-vbv / sar=0 / overscan=0 / videoformat=5 / range=0 / colorprim=1 / transfer=1 / colormatrix=1 / chromaloc=0 / display-window=0 / cll=0,0 / min-luma=0 / max-luma=1023 / log2-max-poc-lsb=8 / vui-timing-info / vui-hrd-info / slices=1 / no-opt-qp-pps / no-opt-ref-list-length-pps / no-multi-pass-opt-rps / scenecut-bias=0.05 / hist-threshold=0.03 / no-opt-cu-delta-qp / no-aq-motion / no-hdr10 / no-hdr10-opt / no-dhdr10-opt / no-idr-recovery-sei / analysis-reuse-level=0 / analysis-save-reuse-level=0 / analysis-load-reuse-level=0 / scale-factor=0 / refine-intra=0 / refine-inter=0 / refine-mv=1 / refine-ctu-distortion=0 / no-limit-sao / ctu-info=0 / no-lowpass-dct / refine-analysis-type=0 / copy-pic=1 / max-ausize-factor=1.0 / no-dynamic-refine / no-single-sei / no-hevc-aq / no-svt / no-field / qp-adaptation-range=1.00 / scenecut-aware-qp=0conformance-window-offsets / right=0 / bottom=0 / NTMzNTQ= / decoder-max-rate=0 / no-vbv-live-multi-pass

  35. Default : Yes

  36. Forced : No

  37. Color range : Limited

  38. Color primaries : BT.709

  39. Transfer characteristics : BT.709

  40. Matrix coefficients : BT.709

  41. Audio

  42. ID : 2

  43. Format : FLAC

  44. Format/Info : Free Lossless Audio Codec

  45. Codec ID : A_FLAC

  46. Duration : 2 h 3 min

  47. Bit rate mode : Variable

  48. Bit rate : 262 kb/s

  49. Channel(s) : 2 channels

  50. Sampling rate : 48.0 kHz

  51. Frame rate : 11.719 FPS (4096 SPF)

  52. Bit depth : 16 bits

  53. Compression mode : Lossless

  54. Stream size : 232 MiB (4%)

  55. Writing library : libFLAC 1.3.3 (UTC 2019-08-04)

  56. Language : English

  57. Default : Yes

  58. Forced : No

  59. Text #1

  60. ID : 3

  61. Format : PGS

  62. Muxing mode : zlib

  63. Codec ID : S_HDMV/PGS

  64. Codec ID/Info : Picture based subtitle format used on BDs/HD-DVDs

  65. Duration : 2 h 1 min

  66. Bit rate : 33.8 kb/s

  67. Count of elements : 2780

  68. Stream size : 29.3 MiB (0%)

  69. Title : CHS

  70. Language : Chinese

  71. Default : Yes

  72. Forced : No

  73. Text #2

  74. ID : 4

  75. Format : PGS

  76. Muxing mode : zlib

  77. Codec ID : S_HDMV/PGS

  78. Codec ID/Info : Picture based subtitle format used on BDs/HD-DVDs

  79. Duration : 2 h 1 min

  80. Bit rate : 34.6 kb/s

  81. Count of elements : 2780

  82. Stream size : 30.0 MiB (1%)

  83. Title : CHT

  84. Language : Chinese

  85. Default : No

  86. Forced : No

  87. Text #3

  88. ID : 5

  89. Format : UTF-8

  90. Codec ID : S_TEXT/UTF8

  91. Codec ID/Info : UTF-8 Plain Text

  92. Duration : 2 h 0 min

  93. Bit rate : 80 b/s

  94. Count of elements : 1858

  95. Stream size : 71.1 KiB (0%)

  96. Title : ENG

  97. Language : English

  98. Default : No

  99. Forced : No

  100. Menu

  101. 00:00:00.000 : en:Chapter 01

  102. 00:10:14.280 : en:Chapter 02

  103. 00:16:58.476 : en:Chapter 03

  104. 00:26:31.048 : en:Chapter 04

  105. 00:33:22.000 : en:Chapter 05

  106. 00:45:43.199 : en:Chapter 06

  107. 00:58:22.082 : en:Chapter 07

  108. 01:08:24.851 : en:Chapter 08

  109. 01:17:42.658 : en:Chapter 09

  110. 01:28:08.783 : en:Chapter 10

  111. 01:39:18.619 : en:Chapter 11

  112. 01:54:25.609 : en:Chapter 12

  113. 02:03:58.723 : en:Chapter 13


复制代码



文件下载


除非特别注明,本文『赛末点[简繁英字幕].Match.Point.2005.FRA.1080p.BluRay.x265.10bit.FLAC2.0--MiniHD 5.86GB』来源于互联网机器人自动抓取,非本站原创。 浮游电影网不对本文拥有版权,如有侵犯,请联系邮箱:fuyouu#yandex.com[#换成@]投诉。我们会在15个工作日内删除。 但烦请转载时请标明出处:“本文转载于『浮游电影网』,原文地址:https://www.fuyouu.com/22107.html

评论吧骚年!

发表你的见解   

昵称*

E-mail*(建议输入,以便收到博主回复的提示邮件)

验证码*

您可以使用eMule或eMule Mod(Windows)、aMule(Win、Linux、Mac)等软件下载eD2k链接。。
eMule收藏集(.emulecollection)文件是您选中的所有链接的列表文件。eMule可以直接下载它们。
按住SHIFT键选择可以选中多个选择框。
可用文件名和大小选择器来选择文件。
文件名选择器帮您根据文件名称或后缀来选择文件。不分大小写。
符号使用:
和:空格( )、+
不包含:-
或:|
转义:一对英文引号("");
匹配开头:^
匹配结尾:$
例如:
选中所有名称中包含有“eMule”或“0.49c”字眼,但不包含有“exe”字眼的:emule|0.49c -exe
选中所有名称的开头是“eMule”,结尾是“0.49c”的:^emule 0.49c$
选中所有名称中带有“eMule 0.49c”的(必须是“eMule 0.49c”,中间没有别的字符,不能是“eMule fake 0.49c”),需要转义:"emule 0.49c"
大小选择器帮您根据文件大小选择文件。