当前位置: 首页 >> 国产电影 >> 杨门女将之军令如山[国语配音/中文字幕].Legendary.Amazons.2011.2160p.WEB-DL.H265.AAC-CTRLWEB 3.31GB >> 正文

杨门女将之军令如山[国语配音/中文字幕].Legendary.Amazons.2011.2160p.WEB-DL.H265.AAC-CTRLWEB 3.31GB

2022年05月13日 23:17:21     电影发布:来源于网络     电影分类:国产电影     评论(0)    

◎译 名 杨门女将之军令如山 / Legendary Amazons

◎年 代 2011

◎产 地 中国大陆 / 中国香港

◎类 别 动作 / 战争 / 武侠 / 古装

◎语 言 汉语普通话 / 粤语

◎上映日期 2011-11-18(中国大陆)

◎IMDb链接 https://www.imdb.com/title/tt2106514/

◎豆瓣评分 3.6/10 (22958人评价)

◎豆瓣链接 https://movie.douban.com/subject/4824982/

◎片 长 108分钟

◎导 演 陈勋奇 Frankie Chan (id:1280419)

◎编 剧 陈勋奇 Frankie Chan (id:1280419)

柳蘅 Heng Liu (id:1404668)

马红路 Honglu Ma (id:1404667)

◎演 员 张柏芝 Cecilia Cheung (id:1003495)

任贤齐 Richie Jen (id:1009888)

刘晓庆 Xiaoqing Liu (id:1042637)

郑佩佩 Pei-pei Cheng (id:1037023)

周海媚 Kathy Chow (id:1037908)

陈紫函 Zihan Chen (id:1274412)

金巧巧 Qiaoqiao Jin (id:1312856)

于娜 Na Yu (id:1316201)

大岛由加利 Yukari ?shima (id:1016825)

刘冬 Dong Liu (id:1274765)

赵芊羽 Qianyu Zhao (id:1316465)

杨紫彤 Zitong Yang (id:1316206)

肖明玉 Mingyu Xiao (id:1331527)

戈春艳 Chunyan Ge (id:1320044)

周小飞 Xiaofei Zhou (id:1340063)

王媞 Katy Wang (id:1404669)

李静 Jing Li (id:1276008)

张绮烟 Qiyan Zhang (id:1343805)

午马 Wu Ma (id:1054282)

史梵希 Fanxi Shi (id:1335188)

任学海 Xuehai Ren (id:1320404)

林威 Wai Lam (id:1289306)

黄小瑜 Xiaoyu Huang (id:1383351)

王如慧 Ruhui Wang (id:1326072)

隋佳虹 Jiahong Sui (id:1451223)

阿鲲 Roc Chen (id:1376620)

汤灿 Can Tang (id:1329198)

钟移风 Yee-Fung Chung (id:1304498)

任仲伦 Zhonglun Ren (id:1333045)

◎简 介

时为北宋仁宗年间,君不君,臣不臣,大宋江山内忧外患。危难之际,杨继业率领的杨家将与异族抗战,却相继命丧沙场。及至天门关陷落,杨家虎将杨宗保(任贤齐 饰)战死,北宋江山岌岌可危。在这关键时刻,天子擢升杨家老太君佘赛花(郑佩佩 饰)为监军、宗保之子杨文广(肖明玉 饰)挂帅统领一万人马对抗西夏国十万大军。 此时杨门男儿多以战死,为报国恩,身怀绝世武功的杨门女将在佘太君、穆桂英(张柏芝 饰)等人的率领下朝向关外行进。

本该是如花美眷刺绣描兰的的女儿家,为了国家大义捐弃身血在所不惜,由此谱写了六方百年的杨门女将的不朽传奇……

◎获奖情况 (共7项)

第3届金扫帚奖 (2012)

最令人失望影片

最令人失望导演

└──陈勋奇 (id:1280419)

最令人失望女演员

└──张柏芝 (id:1003495)

第2届豆瓣电影鑫像奖 (2012)

豆渣单元 最渣影片(华语)

豆渣单元 最渣导演(华语)

└──陈勋奇 (id:1280419)

豆渣单元 最渣男演员(华语)

└──任贤齐 (id:1009888)

豆渣单元 最渣女演员(华语)

└──张柏芝 (id:1003495)

  1. ##### MediaInfo ######

  2. General

  3. Complete name : Legendary.Amazons.2011.2160p.WEB-DL.H265.AAC-CTRLWEB.mp4

  4. Format : MPEG-4

  5. Format profile : Base Media

  6. Codec ID : isom (isom/iso2/mp41)

  7. File size : 3.31 GiB

  8. Duration : 1 h 47 min

  9. Overall bit rate mode : Variable

  10. Overall bit rate : 4 397 kb/s

  11. Recorded date : 2022-05-12T12:26:25.0221848+08:00

  12. Writing application : Lavf59.16.100

  13. Video

  14. ID : 1

  15. Format : HEVC

  16. Format/Info : High Efficiency Video Coding

  17. Format profile : [email protected]@Main

  18. Codec ID : hev1

  19. Codec ID/Info : High Efficiency Video Coding

  20. Duration : 1 h 47 min

  21. Bit rate : 4 267 kb/s

  22. Width : 3 840 pixels

  23. Height : 1 632 pixels

  24. Display aspect ratio : 2.35:1

  25. Frame rate mode : Constant

  26. Frame rate : 24.000 FPS

  27. Color space : YUV

  28. Chroma subsampling : 4:2:0

  29. Bit depth : 8 bits

  30. Bits/(Pixel*Frame) : 0.028

  31. Stream size : 3.22 GiB (97%)

  32. Codec configuration box : hvcC

  33. Audio

  34. ID : 2

  35. Format : AAC LC

  36. Format/Info : Advanced Audio Codec Low Complexity

  37. Codec ID : mp4a-40-2

  38. Duration : 1 h 47 min

  39. Bit rate mode : Variable

  40. Bit rate : 124 kb/s

  41. Maximum bit rate : 126 kb/s / 126 kb/s

  42. Channel(s) : 2 channels

  43. Channel layout : L R

  44. Sampling rate : 44.1 kHz

  45. Frame rate : 43.066 FPS (1024 SPF)

  46. Compression mode : Lossy

  47. Stream size : 95.9 MiB (3%)

  48. Default : Yes

  49. Alternate group : 1


复制代码



文件下载


除非特别注明,本文『杨门女将之军令如山[国语配音/中文字幕].Legendary.Amazons.2011.2160p.WEB-DL.H265.AAC-CTRLWEB 3.31GB』来源于互联网机器人自动抓取,非本站原创。 浮游电影网不对本文拥有版权,如有侵犯,请联系邮箱:fuyouu#yandex.com[#换成@]投诉。我们会在15个工作日内删除。 但烦请转载时请标明出处:“本文转载于『浮游电影网』,原文地址:https://www.fuyouu.com/22105.html

评论吧骚年!

发表你的见解   

昵称*

E-mail*(建议输入,以便收到博主回复的提示邮件)

验证码*

您可以使用eMule或eMule Mod(Windows)、aMule(Win、Linux、Mac)等软件下载eD2k链接。。
eMule收藏集(.emulecollection)文件是您选中的所有链接的列表文件。eMule可以直接下载它们。
按住SHIFT键选择可以选中多个选择框。
可用文件名和大小选择器来选择文件。
文件名选择器帮您根据文件名称或后缀来选择文件。不分大小写。
符号使用:
和:空格( )、+
不包含:-
或:|
转义:一对英文引号("");
匹配开头:^
匹配结尾:$
例如:
选中所有名称中包含有“eMule”或“0.49c”字眼,但不包含有“exe”字眼的:emule|0.49c -exe
选中所有名称的开头是“eMule”,结尾是“0.49c”的:^emule 0.49c$
选中所有名称中带有“eMule 0.49c”的(必须是“eMule 0.49c”,中间没有别的字符,不能是“eMule fake 0.49c”),需要转义:"emule 0.49c"
大小选择器帮您根据文件大小选择文件。