当前位置: 首页 >> 国产电影 >> 战国[国语配音/中文字幕].The.Warring.State.2011.1080p.WEB-DL.H265.AAC-CTRLWEB 3.99GB >> 正文

战国[国语配音/中文字幕].The.Warring.State.2011.1080p.WEB-DL.H265.AAC-CTRLWEB 3.99GB

2022年05月13日 23:16:24     电影发布:来源于网络     电影分类:国产电影     评论(0)    

◎译 名 战国 / The Warring State

◎年 代 2011

◎产 地 中国大陆

◎类 别 剧情 / 动作 / 爱情 / 悬疑 / 战争 / 古装

◎语 言 汉语普通话

◎上映日期 2011-04-12(中国大陆)

◎IMDb链接 https://www.imdb.com/title/tt1885448/

◎豆瓣评分 3.9/10 (41632人评价)

◎豆瓣链接 https://movie.douban.com/subject/4707585/

◎片 长 126分钟

◎导 演 金琛 Chen Jin (id:1302438)

◎编 剧 申捷 Jie Shen (id:1320305)

◎演 员 孙红雷 Honglei Sun (id:1053581)

景甜 Tian Jing (id:1275432)

金喜善 Hee-seon Kim (id:1186530)

吴镇宇 Francis Ng (id:1037098)

中井贵一 Kiichi Nakai (id:1050774)

姜武 Wu Jiang (id:1274290)

黄海冰 Haibing Huang (id:1312939)

雪村 Cun Xue (id:1275210)

郭德纲 Degang Guo (id:1274305)

徐忱 Chen Xu (id:1378357)

聂霸虎 Bahu Nie (id:1400496)

刘浠希 Xixi Liu (id:1405089)

冯恩鹤 Enhe Feng (id:1313877)

冯玉玺 Yuxi Feng (id:1417165)

白红标 Hongbiao Bai (id:1371804)

孙浩 Hao Sun (id:1316965)

余皑磊 Ailei Yu (id:1313809)

徐娇 Jiao Xu (id:1023236)

马精武 Jingwu Ma (id:1313092)

刘亚津 Yajin Liu (id:1314404)

郝好 Hao Hao (id:1315459)

方子哥 Zige Fang (id:1275540)

张笑君 Xiaojun Zhang (id:1317609)

雷恪生 Kesheng Lei (id:1274724)

何沄伟 Yunwei He (id:1313982)

孙杰 jie sun (id:1460476)

王辉 Hui Wang (id:1456714)

吴黎中 Lizhong Wu (id:1445324)

王辉 Hui Wang (id:1456714)

元彬 Bun Yuen (id:1278657)

罗义民 Norman Law (id:1316462)

宋佳霓 Jiani Song (id:1362571)

张乐昊旻 Haomin Zhangle (id:1357282)

罗礼贤 Bruce Law (id:1289542)

◎简 介

《战国》豆瓣官方小站:<a href="https://www.douban.com/link2/?url=http%3A%2F%2Fsite.douban.com%2F113652%2F">http://site.douban.c<wbr/>om/113652/</a>

战国时代,七雄并起。传说一代纵横家鬼谷子将毕生绝学传给得意门生——尚未被膑便自称为膑的孙膑(孙红雷 饰),遂引得各方诸侯相机而动。在齐魏之战中,孙膑凭借才学大挫齐国锐气,虽然沦为阶下囚,但深得齐王(中井贵一 饰)赏识,将其推荐为田忌(姜武 饰)之女田夕(景甜 饰)的座上宾。不久,河洛大会举行,各国勾心斗角,局势紧张。孙膑危急之时代表齐国赛马,大出风头。在此之后,他被同门师兄庞涓(吴镇宇 饰)引入魏国。魏王为人多猜忌,庞涓又忌恨孙膑独得鬼谷子的绝学,故而设计剜去孙膑的膝盖骨。一场混杂了友情和奇谋的旷世传奇就此拉开血腥的大幕……

◎获奖情况 (共5项)

第3届金扫帚奖 (2012)

最令人失望影片

最令人失望男演员

└──孙红雷 (id:1053581)

第2届豆瓣电影鑫像奖 (2012)

豆渣单元 最渣影片(华语)(提名)

豆渣单元 最渣男演员(华语)(提名)

└──孙红雷 (id:1053581)

豆渣单元 最渣女演员(华语)(提名)

└──景甜 (id:1275432)

  1. ##### MediaInfo ######

  2. General

  3. Complete name : The.Warring.State.2011.1080p.WEB-DL.H265.AAC-CTRLWEB.mp4

  4. Format : MPEG-4

  5. Format profile : Base Media

  6. Codec ID : isom (isom/iso2/mp41)

  7. File size : 3.99 GiB

  8. Duration : 1 h 59 min

  9. Overall bit rate mode : Variable

  10. Overall bit rate : 4 774 kb/s

  11. Recorded date : 2022-05-12T09:57:44.0244338+08:00

  12. Writing application : Lavf59.16.100

  13. Video

  14. ID : 1

  15. Format : HEVC

  16. Format/Info : High Efficiency Video Coding

  17. Format profile : [email protected]@High

  18. Codec ID : hev1

  19. Codec ID/Info : High Efficiency Video Coding

  20. Duration : 1 h 59 min

  21. Bit rate : 4 643 kb/s

  22. Width : 1 920 pixels

  23. Height : 816 pixels

  24. Display aspect ratio : 2.35:1

  25. Frame rate mode : Constant

  26. Frame rate : 24.000 FPS

  27. Color space : YUV

  28. Chroma subsampling : 4:2:0

  29. Bit depth : 8 bits

  30. Bits/(Pixel*Frame) : 0.123

  31. Stream size : 3.88 GiB (97%)

  32. Codec configuration box : hvcC

  33. Audio

  34. ID : 2

  35. Format : AAC LC

  36. Format/Info : Advanced Audio Codec Low Complexity

  37. Codec ID : mp4a-40-2

  38. Duration : 1 h 59 min

  39. Bit rate mode : Variable

  40. Bit rate : 124 kb/s

  41. Maximum bit rate : 126 kb/s / 126 kb/s

  42. Channel(s) : 2 channels

  43. Channel layout : L R

  44. Sampling rate : 44.1 kHz

  45. Frame rate : 43.066 FPS (1024 SPF)

  46. Compression mode : Lossy

  47. Stream size : 106 MiB (3%)

  48. Default : Yes

  49. Alternate group : 1


复制代码



文件下载


除非特别注明,本文『战国[国语配音/中文字幕].The.Warring.State.2011.1080p.WEB-DL.H265.AAC-CTRLWEB 3.99GB』来源于互联网机器人自动抓取,非本站原创。 浮游电影网不对本文拥有版权,如有侵犯,请联系邮箱:fuyouu#yandex.com[#换成@]投诉。我们会在15个工作日内删除。 但烦请转载时请标明出处:“本文转载于『浮游电影网』,原文地址:https://www.fuyouu.com/22104.html

评论吧骚年!

发表你的见解   

昵称*

E-mail*(建议输入,以便收到博主回复的提示邮件)

验证码*

您可以使用eMule或eMule Mod(Windows)、aMule(Win、Linux、Mac)等软件下载eD2k链接。。
eMule收藏集(.emulecollection)文件是您选中的所有链接的列表文件。eMule可以直接下载它们。
按住SHIFT键选择可以选中多个选择框。
可用文件名和大小选择器来选择文件。
文件名选择器帮您根据文件名称或后缀来选择文件。不分大小写。
符号使用:
和:空格( )、+
不包含:-
或:|
转义:一对英文引号("");
匹配开头:^
匹配结尾:$
例如:
选中所有名称中包含有“eMule”或“0.49c”字眼,但不包含有“exe”字眼的:emule|0.49c -exe
选中所有名称的开头是“eMule”,结尾是“0.49c”的:^emule 0.49c$
选中所有名称中带有“eMule 0.49c”的(必须是“eMule 0.49c”,中间没有别的字符,不能是“eMule fake 0.49c”),需要转义:"emule 0.49c"
大小选择器帮您根据文件大小选择文件。