当前位置: 首页 >> 欧美电影 >> 值得[中文字幕].Worth.2020.1080p.GaragePlay.WEB-DL.AAC2.0.x264-CTRLWEB 3.51GB >> 正文

值得[中文字幕].Worth.2020.1080p.GaragePlay.WEB-DL.AAC2.0.x264-CTRLWEB 3.51GB

2022年05月13日 23:11:51     电影发布:来源于网络     电影分类:欧美电影     评论(0)    

◎译 名 值得 / 911算命律师(港) / 生命最值得的东西 / What Is Life Worth / WORTH / 生命理赔师(台)

◎片 名 Worth

◎年 代 2020

◎产 地 美国

◎类 别 剧情 / 传记 / 历史

◎语 言 英语

◎上映日期 2020-01-24(圣丹斯电影节) / 2021-09-03(美国网络)

◎IMDb链接 https://www.imdb.com/title/tt8009744/

◎豆瓣评分 7.3/10 (754人评价)

◎豆瓣链接 https://movie.douban.com/subject/30456631/

◎片 长 118分钟

◎导 演 萨拉·科朗吉洛 Sara Colangelo (id:1344939)

◎编 剧 麦克思·鲍伦斯坦 Max Borenstein (id:1306812)

◎演 员 迈克尔·基顿 Michael Keaton (id:1049486)

斯坦利·图齐 Stanley Tucci (id:1040517)

艾米·莱安 Amy Ryan (id:1144124)

劳拉·本纳蒂 Laura Benanti (id:1189444)

泰特·多诺万 Tate Donovan (id:1027848)

塔利亚·巴尔萨姆 Talia Balsam (id:1064719)

克里斯·塔拉迪奥 Chris Tardio (id:1325820)

祖赞娜·斯扎德科夫斯基 Zuzanna Szadkowski (id:1022777)

维克多·斯勒扎克 Victor Slezak (id:1022940)

沃斯·史蒂文斯 Wass Stevens (id:1351691)

阿尔弗雷多·纳西索 Alfredo Narciso (id:1350966)

史蒂夫·维诺维奇 Steve Vinovich (id:1156288)

舒诺里·拉马纳森 Shunori Ramanathan (id:1408388)

安索拉·凯特斯玛蒂迪斯 Anthoula Katsimatides (id:1361446)

约瑟夫·劳格诺 Joseph Ragno (id:1343306)

大卫·菲耶罗 David Fierro (id:1283685)

詹姆斯·西科内 James Ciccone (id:1430666)

弗兰克·安妮罗 Frank Anello (id:1394981)

伊恩·布莱克曼 Ian Blackman (id:1062557)

奥托·布兰克森-伍德 Ato Blankson-Wood (id:1403206)

丽兹·卡梅隆 Liz Cameron (id:1459800)

赫纳多·罗德里格斯 Henardo Rodriguez (id:1437029)

汤姆·布鲁诺 Tom Bruno (id:1408780)

Bradford How Bradford How (id:1190577)

Kubbi Kubbi (id:1181308)

斯蒂芬妮·林恩·威尔逊 Stephanie Lynn Wilson (id:1439032)

尼可·穆利 Nico Muhly (id:1309031)

◎简 介

继 2001 年世贸中心和五角大楼遭受恐怖袭击之后,国会任命律师和著名调停者肯尼斯·费恩伯格(迈克尔·基顿饰)领导 911 受害者赔偿基金。费恩伯格和他公司的运营主管卡米尔·比罗(艾米·莱安饰)奉命为这场悲剧的受害者划拨经济赔偿,他们面临着一个不可能完成的任务:确定一条生命的价值,以帮助那些损失不可估量的家庭。当费恩伯格与痛失爱妻的社区组织者查尔斯·沃尔夫(斯坦利·图齐饰)发生冲突时,他最初的愤世嫉俗变成了同情,因为他开始了解到这场悲剧给人类带来的真正代价。

《Worth》改编自真实事件,以感人的方式让人们了解到同理心的力量和羁绊的价值。该电影由萨拉·科朗吉洛执导,麦克思·鲍伦斯坦担任编剧和制片人,马克·布坦、安东尼·卡塔格斯、迈克尔·休格、巴德·多罗斯、肖恩·瑟恩森和迈克尔·基顿共同担任制片人。泰特·多诺万、舒诺里·拉马纳森、塔利亚·巴尔萨姆、劳拉...

  1. ##### MediaInfo ######

  2. General

  3. Unique ID : 335213316211797120209243975266440611729 (0xFC2FBC811A861AB7AB3AA80CCAD08791)

  4. Complete name : Worth.2020.1080p.GaragePlay.WEB-DL.AAC2.0.x264-CTRLWEB.mkv

  5. Format : Matroska

  6. Format version : Version 4

  7. File size : 3.51 GiB

  8. Duration : 1 h 57 min

  9. Overall bit rate : 4 276 kb/s

  10. Encoded date : UTC 2022-05-11 11:56:13

  11. Writing application : mkvmerge v63.0.0 ('Everything') 32-bit

  12. Writing library : libebml v1.4.2 + libmatroska v1.6.4

  13. Video

  14. ID : 1

  15. Format : AVC

  16. Format/Info : Advanced Video Codec

  17. Format profile : [email protected]

  18. Format settings : CABAC / 3 Ref Frames

  19. Format settings, CABAC : Yes

  20. Format settings, Reference frames : 3 frames

  21. Format settings, GOP : M=1, N=60

  22. Codec ID : V_MPEG4/ISO/AVC

  23. Duration : 1 h 57 min

  24. Bit rate : 4 000 kb/s

  25. Width : 1 920 pixels

  26. Height : 1 080 pixels

  27. Display aspect ratio : 16:9

  28. Frame rate mode : Constant

  29. Frame rate : 29.970 (30000/1001/53354) FPS

  30. Color space : YUV

  31. Chroma subsampling : 4:2:0

  32. Bit depth : 8 bits

  33. Scan type : Progressive

  34. Bits/(Pixel*Frame) : 0.064

  35. Stream size : 3.23 GiB (92%)

  36. Writing library : x264 core 148 r2762 90a61ec

  37. Encoding settings : cabac=1 / ref=3 / deblock=1:0:0 / analyse=0x1:0x111 / me=hex / subme=7 / psy=1 / psy_rd=1.00:0.00 / mixed_ref=1 / me_range=16 / chroma_me=1 / trellis=1 / 8x8dct=0 / cqm=0 / deadzone=21,11 / fast_pskip=1 / chroma_qp_offset=-2 / threads=12 / lookahead_threads=2 / sliced_threads=0 / nr=0 / decimate=1 / interlaced=0 / NTMzNTQ= / bluray_compat=0 / constrained_intra=0 / bframes=0 / weightp=2 / keyint=60 / keyint_min=31 / scenecut=0 / intra_refresh=0 / rc_lookahead=40 / rc=abr / mbtree=1 / bitrate=4000 / ratetol=1.0 / qcomp=0.60 / qpmin=0 / qpmax=69 / qpstep=4 / NTMzNTQ=LmsMAP37EqsCpk / ip_ratio=1.40 / aq=1:1.00

  38. Default : Yes

  39. Forced : No

  40. Audio

  41. ID : 2

  42. Format : AAC LC

  43. Format/Info : Advanced Audio Codec Low Complexity

  44. Codec ID : A_AAC-2

  45. Duration : 1 h 57 min

  46. Bit rate : 340 kb/s

  47. Channel(s) : 6 channels

  48. Channel layout : C L R Ls Rs LFE

  49. Sampling rate : 48.0 kHz

  50. Frame rate : 46.875 FPS (1024 SPF)

  51. Compression mode : Lossy

  52. Stream size : 285 MiB (8%)

  53. Language : English

  54. Default : Yes

  55. Forced : No


复制代码



文件下载


除非特别注明,本文『值得[中文字幕].Worth.2020.1080p.GaragePlay.WEB-DL.AAC2.0.x264-CTRLWEB 3.51GB』来源于互联网机器人自动抓取,非本站原创。 浮游电影网不对本文拥有版权,如有侵犯,请联系邮箱:fuyouu#yandex.com[#换成@]投诉。我们会在15个工作日内删除。 但烦请转载时请标明出处:“本文转载于『浮游电影网』,原文地址:https://www.fuyouu.com/22101.html

评论吧骚年!

发表你的见解   

昵称*

E-mail*(建议输入,以便收到博主回复的提示邮件)

验证码*

您可以使用eMule或eMule Mod(Windows)、aMule(Win、Linux、Mac)等软件下载eD2k链接。。
eMule收藏集(.emulecollection)文件是您选中的所有链接的列表文件。eMule可以直接下载它们。
按住SHIFT键选择可以选中多个选择框。
可用文件名和大小选择器来选择文件。
文件名选择器帮您根据文件名称或后缀来选择文件。不分大小写。
符号使用:
和:空格( )、+
不包含:-
或:|
转义:一对英文引号("");
匹配开头:^
匹配结尾:$
例如:
选中所有名称中包含有“eMule”或“0.49c”字眼,但不包含有“exe”字眼的:emule|0.49c -exe
选中所有名称的开头是“eMule”,结尾是“0.49c”的:^emule 0.49c$
选中所有名称中带有“eMule 0.49c”的(必须是“eMule 0.49c”,中间没有别的字符,不能是“eMule fake 0.49c”),需要转义:"emule 0.49c"
大小选择器帮您根据文件大小选择文件。