当前位置: 首页 >> 欧美电影 >> 蜘蛛侠[共3部合集][简繁英字幕].Spider-Man.2002-2007.UHD.BluRay.2160p.TrueHD.Atmos.7.1.x265.10bit.HDR-ALT 62.46GB >> 正文

蜘蛛侠[共3部合集][简繁英字幕].Spider-Man.2002-2007.UHD.BluRay.2160p.TrueHD.Atmos.7.1.x265.10bit.HDR-ALT 62.46GB

2022年05月13日 21:42:13     电影发布:来源于网络     电影分类:欧美电影     评论(0)    

◎译 名 蜘蛛侠 / 蜘蛛人(台)

◎片 名 Spider-Man

◎年 代 2002

◎产 地 美国

◎类 别 动作 / 科幻 / 冒险

◎语 言 英语

◎上映日期 2002-08-07(中国大陆) / 2002-05-03(美国)

◎IMDb链接 https://www.imdb.com/title/tt0145487/

◎豆瓣评分 8.0/10 (345521人评价)

◎豆瓣链接 https://movie.douban.com/subject/1306612/

◎片 长 121 分钟

◎导 演 山姆·雷米 Sam Raimi (id:1027159)

◎编 剧 大卫·凯普 David Koepp (id:1019071)

斯坦·李 Stan Lee (id:1013888)

史蒂夫·迪特寇 Steve Ditko (id:1041593)

◎演 员 托比·马奎尔 Tobey Maguire (id:1047997)

威廉·达福 Willem Dafoe (id:1010539)

克斯汀·邓斯特 Kirsten Dunst (id:1054429)

詹姆斯·弗兰科 James Franco (id:1019001)

克里夫·罗伯逊 Cliff Robertson (id:1049774)

罗斯玛丽·哈里斯 Rosemary Harris (id:1049737)

J·K·西蒙斯 J.K. Simmons (id:1147911)

乔·曼根尼罗 Joe Manganiello (id:1013768)

格里·贝克尔 Gerry Becker (id:1063260)

比尔·努恩 Bill Nunn (id:1027407)

杰克·贝茨 Jack Betts (id:1278557)

斯坦利·安德森 Stanley Anderson (id:1027583)

罗恩·帕金斯 Ron Perkins (id:1326339)

迈克尔·帕帕约翰 Michael Papajohn (id:1040856)

布鲁斯·坎贝尔 Bruce Campbell (id:1069816)

斯坦·李 Stan Lee (id:1013888)

伊丽莎白·班克斯 Elizabeth Banks (id:1004571)

奥克塔维亚·斯宾瑟 Octavia Spencer (id:1154263)

露西·劳莱丝 Lucy Lawless (id:1002669)

莎拉·拉米尔兹 Sara Ramirez (id:1049611)

宾尼·尤奎德兹 Benny Urquidez (id:1151480)

斯科特·斯皮格尔 Scott Spiegel (id:1014264)

吉姆·诺顿 Jim Norton (id:1203249)

杰西·巴托克 Jayce Bartok (id:1032460)

金锋 Feng Jin (id:1320630)

阿什丽·艾德纳 Ashley Edner (id:1055700)

罗伯特·科尔曼 Robert Kerman (id:1103753)

彼得·阿佩尔 Peter Appel (id:1056660)

杰西·海曼 Jesse Heiman (id:1193886)

席尔瓦·克莱吉安 Sylva Kelegian (id:1108552)

泰德·雷米 Ted Raimi (id:1036535)

玛西·格雷 Macy Gray (id:1049973)

迈克·沃特福德 Myk Watford (id:1163748)

Tammi Sutton Tammi Sutton (id:1028422)

Lou Torres Lou Torres (id:1038377)

Jillian Clare Jillian Clare (id:1280883)

Jacob Chambers Jacob Chambers (id:1280404)

兰迪·霍尔 Randy Hall (id:1285864)

菲利普·吴 Philip Ng (id:1002307)

Kristen Marie Holly Kristen Marie Holly (id:1304262)

克劳迪娅·卡茨 Claudia Katz (id:1009911)

Derek C. Wallace Derek C. Wallace (id:1166220)

阿杰·梅赫塔 Ajay Mehta (id:1332096)

Lance Polland Lance Polland (id:1019870)

Sean Valla Sean Valla (id:1024346)

Jophery C. Brown Jophery C. Brown (id:1076926)

Alex Black Alex Black (id:1061815)

Andy Bray Andy Bray (id:1162805)

布拉德·格伦伯格 Brad Grunberg (id:1078271)

Jill Sayre Jill Sayre (id:1140611)

兰迪·萨瓦格 Randy Savage (id:1136354)

杰森·帕德格特 Jason Padgett (id:1131504)

Joy Michelle Moore Joy Michelle Moore (id:1084293)

David Holcomb David Holcomb (id:1095086)

Al Goto Al Goto (id:1095573)

Shane Habberstad Shane Habberstad (id:1102090)

比尔·卡尔弗特 Bill Calvert (id:1073090)

洛伦·简斯 Loren Janes (id:1105800)

Andray Johnson Andray Johnson (id:1106030)

拉里·约书亚 Larry Joshua (id:1108232)

Juan M. Guerra Juan M. Guerra (id:1169898)

Ari Averbach Ari Averbach (id:1171308)

Patrick Coleman Duncan (id:1224628)

Cody Cundiff (id:1235721)

Richard Stephens (id:1245548)

Marcus Gorman (id:1257108)

瑞克·艾弗里 Rick Avery (id:1277606)

Gary Otto Gary Otto (id:1210167)

Margaret Baker Margaret Baker (id:1208220)

John Wojnowski III John Wojnowski III (id:1177634)

Erica D. Porter Erica D. Porter (id:1187125)

Camille Bennett Camille Bennett (id:1193132)

Leroy Patterson Leroy Patterson (id:1200896)

Peter Genovese Peter Genovese (id:1201056)

萨默·雷石东 Sumner Redstone (id:1202275)

Justin Neill Justin Neill (id:1207240)

R.C. Everbeck R.C. Everbeck (id:1041971)

斯坦·李 Stan Lee (id:1013888)

劳拉·泽斯金 Laura Ziskin (id:1032584)

史蒂文·P·塞塔 Steven P. Saeta (id:1276330)

海迪·弗尤格曼 Heidi Fugeman (id:1037661)

伊安·布莱斯 Ian Bryce (id:1279526)

丹尼·艾夫曼 Danny Elfman (id:1019059)

德里克·惠布利 Deryck Whibley (id:1160823)

唐·伯吉斯 Don Burgess (id:1018519)

鲍勃·穆拉夫斯基 Bob Murawski (id:1018629)

弗兰辛·梅思勒 Francine Maisler (id:1025402)

Lynn Kressel Lynn Kressel (id:1111154)

Tony Fanning Tony Fanning (id:1283424)

凯伦·奥哈拉 Karen O'Hara (id:1293413)

詹姆斯·艾奇逊 James Acheson (id:1276780)

黛博拉·拉·米亚·德内弗 Deborah La Mia Denaver (id:1282236)

Wade Daily Wade Daily (id:1281734)

Carolyn Elias Carolyn Elias (id:1089996)

汤姆·伍德鲁夫 Tom Woodruff Jr. (id:1301250)

Karen Westerfield Karen Westerfield (id:1300739)

金伯利·斯皮特里 Kimberley Spiteri (id:1298179)

Bill Myer Bill Myer (id:1291953)

Janice Alexander Janice Alexander (id:1276985)

迈克尔·杰曼 Michael Germain (id:1284741)

Elaina P. Schulman Elaina P. Schulman (id:1145928)

Barbara Wilder Barbara Wilder (id:1163030)

Gary Archer Gary Archer (id:1058559)

Lumas Hamilton Jr. Lumas Hamilton Jr. (id:1306807)

Jeff Habberstad Jeff Habberstad (id:1285749)

Lisa C. Satriano Lisa C. Satriano (id:1276451)

巴克·德洛姆 Bac DeLorme (id:1276511)

尼克·萨特里亚诺 Nick Satriano (id:1001542)

安东尼·拉默里纳拉 Anthony LaMolinara (id:1289344)

胡升忠 Sing-Choong Foo (id:1283957)

杰奎·巴恩布鲁克 Jacquie Barnbrook (id:1277948)

约翰·戴克斯特拉 John Dykstra (id:1018536)

格雷戈里·克里泽 Gregory Creaser (id:1219802)

Lydia Bottegoni Lydia Bottegoni (id:1279044)

斯宾塞·库克 Spencer Cook (id:1281199)

Greg Derochie Greg Derochie (id:1282272)

科林·德罗布尼斯 Colin Drobnis (id:1282732)

Daniel Eaton Daniel Eaton (id:1282952)

Fish Essenfeld Fish Essenfeld (id:1283299)

斯科特·斯多克迪克 Scott Stokdyk (id:1028805)

Chris Antonini Chris Antonini (id:1218346)

Brett Gassaway Brett Gassaway (id:1212657)

Anthony Ceccomancini Anthony Ceccomancini (id:1072663)

Patrick Murphy Patrick Murphy (id:1129780)

Chris B. Schnitzer Chris B. Schnitzer (id:1142061)

Messrob Torikian Messrob Torikian (id:1154617)

Matt Dessero Matt Dessero (id:1079659)

James Waterhouse James Waterhouse (id:1167969)

Jeff Olm Jeff Olm (id:1055723)

Erica Hornung Erica Hornung (id:1169833)

Christopher D. Williams Christopher D. Williams (id:1182430)

福尔图纳托·弗拉塔西奥 Fortunato Frattasio (id:1052531)

吉姆·戈尔曼 Jim Gorman (id:1285203)

雷·麦金太尔 Ray McIntyre Jr. (id:1291625)

Dan Abrams Dan Abrams (id:1304998)

安东尼·哈里斯 Anthony Harris (id:1017246)

John E. Sasaki John E. Sasaki (id:1296724)

Earl Wiggins Earl Wiggins (id:1300883)

杰夫·沃尔弗顿 Jeff Wolverton (id:1301169)

John Monos John Monos (id:1302769)

Danny Dimian Danny Dimian (id:1302804)

Alex Grau Alex Grau (id:1303794)

彼得·诺弗兹 Peter Nofz (id:1305797)

凯伦·E·戈勒卡斯 Karen E. Goulekas (id:1023670)

迪昂·哈奇 Dion Hatch (id:1286215)

Pedram Goshtasbpour Pedram Goshtasbpour (id:1026012)

卡尔·胡珀 Carl Hooper (id:1286879)

Leigh-Alexandra Jacob Leigh-Alexandra Jacob (id:1287495)

Bruno Vilela Bruno Vilela (id:1300055)

克里斯·琼恩 Chris Juen (id:1287954)

Daniel Kramer Daniel Kramer (id:1288968)

布拉德·库恩 Brad Kuehn (id:1289086)

丹·格列齐斯 Dan Trezise (id:1304842)

◎简 介

彼得 帕克(托比?马奎尔 Tobey Maguire 饰)只是美国一个平凡的高中生,当一次他被蜘蛛博物馆偷跑出来的变种蜘蛛咬了一口之后,彼得的生活彻底改变了。他变得和蜘蛛一样,拥有各种蜘蛛特有的超能力:从手指喷出粘力极强的蜘蛛丝、飞檐走壁等等。彼得兴奋异常,开始利用自己的超能力去赚钱。但当他最爱的叔叔被自己放走的罪犯杀死后,彼得发誓要用自己的超能力去打击犯罪

彼得好友哈利的父亲诺曼(威廉?达福 Willem Dafoe 饰)是一家生物科技公司的老板,因自己公司生产的飞行器没得到军方首脑赏识而苦恼不堪。一次意外诺曼吸入神经毒气而具有了超能力,引发了自身邪恶的本性,骑着自己研发的飞行器去到处破坏、杀人。彼得化身的蜘蛛侠开始出击了!

◎获奖情况 (共3项)

第75届奥斯卡金像奖 (2003)

最佳视觉效果(提名)

最佳音响(提名)

第56届英国电影学院奖 (2003)

电影奖 最佳特殊视觉效果(提名)

  1. 合集文件列表:

  2. 1.Spider-Man.2.2004.UHD.BluRay.2160p.TrueHD.Atmos.7.1.x265.10bit.HDR-ALT.mkv 20.05GB

  3. 2.Spider-Man.3.2007.UHD.BluRay.2160p.TrueHD.Atmos.7.1.x265.10bit.HDR-ALT.mkv 18.56GB

  4. 3.Spider-Man.2002.UHD.BluRay.2160p.TrueHD.Atmos.7.1.x265.10bit.HDR-ALT.mkv 23.85GB


复制代码

  1. ##### MediaInfo ######

  2. General

  3. Unique ID : 72904206109330197703545826899100493134 (0x36D8D6E069C7EF78F65C09D90C78E54E)

  4. Complete name : Spider-Man.2.2004.UHD.BluRay.2160p.TrueHD.Atmos.7.1.x265.10bit.HDR-ALT.mkv

  5. Format : Matroska

  6. Format version : Version 4

  7. File size : 20.0 GiB

  8. Duration : 2 h 7 min

  9. Overall bit rate mode : Variable

  10. Overall bit rate : 22.5 Mb/s

  11. Encoded date : UTC 2022-05-12 05:30:26

  12. Writing application : mkvmerge v49.0.0 ('Sick Of Losing Soulmates') 64-bit

  13. Writing library : libebml v1.4.0 + libmatroska v1.6.1

  14. Video

  15. ID : 1

  16. Format : HEVC

  17. Format/Info : High Efficiency Video Coding

  18. Format profile : Main [email protected]@High

  19. HDR format : SMPTE ST 2086, HDR10 compatible

  20. Codec ID : V_MPEGH/ISO/HEVC

  21. Duration : 2 h 7 min

  22. Bit rate : 16.8 Mb/s

  23. Width : 3 840 pixels

  24. Height : 1 606 pixels

  25. Display aspect ratio : 2.40:1

  26. Frame rate mode : Constant

  27. Frame rate : 23.976 (24000/1001/53354) FPS

  28. Color space : YUV

  29. Chroma subsampling : 4:2:0 (Type 2)

  30. Bit depth : 10 bits

  31. Bits/(Pixel*Frame) : 0.113

  32. Stream size : 14.9 GiB (74%)

  33. Title : HEVC, [email protected]@High, 24/1.001 fps @ 14197 kbps

  34. Writing library : x265 3.5+36-1f2c8da77:[Windows][GCC 11.2.0][64 bit] 10bit

  35. Encoding settings : cpuid=533541111039 / frame-threads=4 / numa-pools=20 / wpp / no-pmode / no-pme / no-psnr / no-ssim / log-level=2 / input-csp=1 / input-res=3840x1606 / interlace=0 / total-frames=183360 / level-idc=51 / high-tier=1 / uhd-bd=0 / ref=4 / no-allow-non-conformance / repeat-headers / annexb / no-aud / no-eob / no-eos / hrd / info / hash=0 / no-temporal-layers / no-open-gop / min-keyint=24 / keyint=240 / gop-lookahead=0 / bframes=8 / b-adapt=2 / b-pyramid / bframe-bias=0 / rc-lookahead=25 / lookahead-slices=0 / NTMzNTQ=uuDQuD2mJt9fsCf / scenecut=40 / no-hist-scenecut / radl=0 / no-splice / no-intra-refresh / ctu=64 / min-cu-size=8 / no-rect / no-amp / max-tu-size=32 / tu-inter-depth=3 / tu-intra-depth=3 / limit-tu=4 / rdoq-level=2 / dynamic-rd=0.00 / no-ssim-rd / signhide / no-tskip / nr-intra=0 / nr-inter=0 / no-constrained-intra / no-strong-intra-smoothing / max-merge=4 / limit-refs=1 / limit-modes / me=3 / subme=4 / merange=57 / temporal-mvp / no-frame-dup / no-hme / weightp / weightb / no-analyze-src-pics / deblock=-3:-3 / no-sao / no-sao-non-deblock / rd=6 / selective-sao=0 / no-early-skip / rskip / no-fast-intra / no-tskip-fast / no-cu-lossless / b-intra / no-splitrd-skip / rdpenalty=0 / psy-rd=2.00 / psy-rdoq=1.00 / no-rd-refine / no-lossless / cbqpoffs=-2 / crqpoffs=-2 / rc=crf / crf=21.5 / qcomp=0.65 / qpstep=4 / stats-write=0 / stats-read=0 / vbv-maxrate=160000 / vbv-bufsize=160000 / vbv-init=0.9 / min-vbv-fullness=50.0 / max-vbv-fullness=80.0 / crf-max=0.0 / crf-min=0.0 / ipratio=1.30 / pbratio=1.20 / aq-mode=3 / aq-strength=0.85 / cutree / zone-count=0 / no-strict-cbr / qg-size=32 / no-rc-grain / qpmax=69 / qpmin=0 / no-const-vbv / sar=1 / overscan=0 / videoformat=5 / range=0 / colorprim=9 / transfer=16 / colormatrix=9 / chromaloc=1 / chromaloc-top=2 / chromaloc-bottom=2 / display-window=0 / master-display=G(13250,34500)B(7500,3000)R(34000,16000)WP(15635,16450)L(40000000,50) / cll=4471,1007 / min-luma=0 / max-luma=1023 / log2-max-poc-lsb=8 / vui-timing-info / vui-hrd-info / slices=1 / no-opt-qp-pps / no-opt-ref-list-length-pps / no-multi-pass-opt-rps / scenecut-bias=0.05 / hist-threshold=0.03 / no-opt-cu-delta-qp / no-aq-motion / hdr10 / hdr10-opt / no-dhdr10-opt / no-idr-recovery-sei / analysis-reuse-level=0 / analysis-save-reuse-level=0 / analysis-load-reuse-level=0 / scale-factor=0 / refine-intra=0 / refine-inter=0 / refine-mv=1 / refine-ctu-distortion=0 / no-limit-sao / ctu-info=0 / no-lowpass-dct / refine-analysis-type=0 / copy-pic=1 / max-ausize-factor=1.0 / no-dynamic-refine / no-single-sei / no-hevc-aq / no-svt / no-field / qp-adaptation-range=1.00 / scenecut-aware-qp=0conformance-window-offsets / right=0 / bottom=0 / NTMzNTQ= / decoder-max-rate=0 / no-vbv-live-multi-pass

  36. Language : English

  37. Default : Yes

  38. Forced : No

  39. Color range : Limited

  40. Color primaries : BT.2020

  41. Transfer characteristics : PQ

  42. Matrix coefficients : BT.2020 non-constant

  43. Mastering display color primaries : Display P3

  44. Mastering display luminance : min: 0.0050 cd/m2, max: 4000 cd/m2

  45. Maximum Content Light Level : 4471 cd/m2

  46. Maximum Frame-Average Light Level : 1007 cd/m2

  47. Audio #1

  48. ID : 2

  49. Format : MLP FBA 16-ch

  50. Format/Info : Meridian Lossless Packing FBA with 16-channel presentation

  51. Commercial name : Dolby TrueHD with Dolby Atmos

  52. Codec ID : A_TRUEHD

  53. Duration : 2 h 7 min

  54. Bit rate mode : Variable

  55. Bit rate : 4 962 kb/s

  56. Maximum bit rate : 9 234 kb/s

  57. Channel(s) : 8 channels

  58. Channel layout : L R C LFE Ls Rs Lb Rb

  59. Sampling rate : 48.0 kHz

  60. Frame rate : 1 200.000 FPS (40 SPF)

  61. Compression mode : Lossless

  62. Stream size : 4.42 GiB (22%)

  63. Title : English Dolby TrueHD 7.1 (Atmos) @ 5602 kbps

  64. Language : English

  65. Default : Yes

  66. Forced : No

  67. Number of dynamic objects : 11

  68. Bed channel count : 1 channel

  69. Bed channel configuration : LFE

  70. Audio #2

  71. ID : 3

  72. Format : AC-3

  73. Format/Info : Audio Coding 3

  74. Commercial name : Dolby Digital

  75. Codec ID : A_AC3

  76. Duration : 2 h 7 min

  77. Bit rate mode : Constant

  78. Bit rate : 640 kb/s

  79. Channel(s) : 6 channels

  80. Channel layout : L R C LFE Ls Rs

  81. Sampling rate : 48.0 kHz

  82. Frame rate : 31.250 FPS (1536 SPF)

  83. Compression mode : Lossy

  84. Stream size : 583 MiB (3%)

  85. Title : English AC3 5.1-EX @ 640 kbps

  86. Language : English

  87. Service kind : Complete Main

  88. Default : No

  89. Forced : No

  90. Text #1

  91. ID : 4

  92. Format : PGS

  93. Codec ID : S_HDMV/PGS

  94. Codec ID/Info : Picture based subtitle format used on BDs/HD-DVDs

  95. Duration : 2 h 4 min

  96. Bit rate : 21.3 kb/s

  97. Count of elements : 2216

  98. Stream size : 18.9 MiB (0%)

  99. Title : Eng/SUP

  100. Language : English

  101. Default : No

  102. Forced : No

  103. Text #2

  104. ID : 5

  105. Format : PGS

  106. Codec ID : S_HDMV/PGS

  107. Codec ID/Info : Picture based subtitle format used on BDs/HD-DVDs

  108. Duration : 2 h 7 min

  109. Bit rate : 25.8 kb/s

  110. Count of elements : 2876

  111. Stream size : 23.5 MiB (0%)

  112. Title : Eng/SUP SDH

  113. Language : English

  114. Default : No

  115. Forced : No

  116. Text #3

  117. ID : 6

  118. Format : PGS

  119. Codec ID : S_HDMV/PGS

  120. Codec ID/Info : Picture based subtitle format used on BDs/HD-DVDs

  121. Duration : 1 h 58 min

  122. Bit rate : 18.9 kb/s

  123. Count of elements : 2226

  124. Stream size : 16.1 MiB (0%)

  125. Title : Chs/SUP 原盘简体

  126. Language : Chinese

  127. Default : Yes

  128. Forced : No

  129. Text #4

  130. ID : 7

  131. Format : PGS

  132. Codec ID : S_HDMV/PGS

  133. Codec ID/Info : Picture based subtitle format used on BDs/HD-DVDs

  134. Duration : 1 h 58 min

  135. Bit rate : 18.3 kb/s

  136. Count of elements : 2226

  137. Stream size : 15.5 MiB (0%)

  138. Title : Cht/SUP 原盘繁体

  139. Language : Chinese

  140. Default : No

  141. Forced : No

  142. Menu

  143. 00:00:00.000 : en:第 01 章

  144. 00:08:52.824 : en:第 02 章

  145. 00:18:29.942 : en:第 03 章

  146. 00:24:23.712 : en:第 04 章

  147. 00:31:03.653 : en:第 05 章

  148. 00:39:07.887 : en:第 06 章

  149. 00:44:39.010 : en:第 07 章

  150. 00:53:04.723 : en:第 08 章

  151. 00:59:36.448 : en:第 09 章

  152. 01:08:14.424 : en:第 10 章

  153. 01:13:48.424 : en:第 11 章

  154. 01:21:24.213 : en:第 12 章

  155. 01:28:11.870 : en:第 13 章

  156. 01:37:51.240 : en:第 14 章

  157. 01:45:28.781 : en:第 15 章

  158. 01:55:32.926 : en:第 16 章


复制代码



文件下载


除非特别注明,本文『蜘蛛侠[共3部合集][简繁英字幕].Spider-Man.2002-2007.UHD.BluRay.2160p.TrueHD.Atmos.7.1.x265.10bit.HDR-ALT 62.46GB』来源于互联网机器人自动抓取,非本站原创。 浮游电影网不对本文拥有版权,如有侵犯,请联系邮箱:fuyouu#yandex.com[#换成@]投诉。我们会在15个工作日内删除。 但烦请转载时请标明出处:“本文转载于『浮游电影网』,原文地址:https://www.fuyouu.com/22098.html

评论吧骚年!

发表你的见解   

昵称*

E-mail*(建议输入,以便收到博主回复的提示邮件)

验证码*

您可以使用eMule或eMule Mod(Windows)、aMule(Win、Linux、Mac)等软件下载eD2k链接。。
eMule收藏集(.emulecollection)文件是您选中的所有链接的列表文件。eMule可以直接下载它们。
按住SHIFT键选择可以选中多个选择框。
可用文件名和大小选择器来选择文件。
文件名选择器帮您根据文件名称或后缀来选择文件。不分大小写。
符号使用:
和:空格( )、+
不包含:-
或:|
转义:一对英文引号("");
匹配开头:^
匹配结尾:$
例如:
选中所有名称中包含有“eMule”或“0.49c”字眼,但不包含有“exe”字眼的:emule|0.49c -exe
选中所有名称的开头是“eMule”,结尾是“0.49c”的:^emule 0.49c$
选中所有名称中带有“eMule 0.49c”的(必须是“eMule 0.49c”,中间没有别的字符,不能是“eMule fake 0.49c”),需要转义:"emule 0.49c"
大小选择器帮您根据文件大小选择文件。