当前位置: 首页 >> 动画电影 >> 机器人嘉年华[简繁英字幕].Robot.Carnival.1987.2160p.HDR.UHD.BluRay.DTS.x265-10bit-ENTHD 9.27GB >> 正文

机器人嘉年华[简繁英字幕].Robot.Carnival.1987.2160p.HDR.UHD.BluRay.DTS.x265-10bit-ENTHD 9.27GB

2022年05月13日 21:40:37     电影发布:来源于网络     电影分类:动画电影     评论(0)    

◎译 名 机器人嘉年华 / 机器人的嘉年华会 / 机器人狂欢节 / Robot Carnival

◎片 名 ロボットカーニバル

◎年 代 1987

◎产 地 日本

◎类 别 科幻 / 动画

◎语 言 日语

◎上映日期 1987-07-21(日本)

◎IMDb链接 https://www.imdb.com/title/tt0093871/

◎豆瓣评分 8.3/10 (5134人评价)

◎豆瓣链接 https://movie.douban.com/subject/1299701/

◎片 长 93分钟

◎导 演 大友克洋 Katsuhiro ?tomo (id:1164635)

森本晃司 K?ji Morimoto (id:1016896)

大森英敏 Hidetoshi ?mori (id:1343797)

梅津泰臣 Yasuomi Umetsu (id:1037501)

北爪宏幸 Hiroyuki Kitazume (id:1026967)

北久保弘之 Hiroyuki Kitakubo (id:1042293)

大桥学 Manabu ?hashi (id:1343798)

中村孝 Takashi Nakamura (id:1335372)

◎演 员 森次晃嗣 K?ji Moritsugu (id:1033968)

泷泽久美子 Kumiko Takizawa (id:1026555)

稻垣悟 Inagaki Satoru (id:1410064)

梅津秀行 Hideyuki Umezu (id:1024439)

久石让 Joe Hisaishi (id:1035647)

贞本义行 Yoshiyuki Sadamoto (id:1141828)

◎简 介

《机器人嘉年华》荒芜穷困的沙漠村落,一幢标着“机器人嘉年华”的庞然大物突然出现,绚烂的烟火和奋进的音乐伴随着阵阵欢呼声,共同展开了对人类的杀戮;《弗兰肯德齿车》电闪雷鸣,风雨交加,阴森古堡,疯狂的科学家制造的机器人即将苏醒,但是意外突然发生;《DEPRIVE》入侵的外星机器人虏走了可爱的小女孩,她的机器人伙伴发誓闯入敌营救出女孩;《PRESENCE》他拥有富足的生活,却忍受着压抑的婚姻,于是渴望造出一个完全听命于自己的机器人少女;《星光天使》游乐场内,突然失恋的女孩被拾到项链的机器人带入虚拟世界玩耍,经历了前所未有的大冒险;《云》一个机器人少年独自行走,身边的云朵变化万千,如梦如幻;《明治文明奇谭—红毛人来袭卷》一个疯狂的西洋科学家操纵者机器人登陆明治时期的日本,日本年轻人则造了一个木桶机器人迎战;《庭鸟男与红脑袋》醉酒男子无意中闯入机器人统治的街区...

  1. ##### MediaInfo ######

  2. General

  3. Unique ID : 220248341023594463672088365782818858013 (0xA5B2499AC5D500B9827BA1FACB17A41D)

  4. Complete name : Robot.Carnival.1987.2160p.HDR.UHD.BluRay.DTS.x265-10bit-ENTHD.mkv

  5. Format : Matroska

  6. Format version : Version 4

  7. File size : 9.27 GiB

  8. Duration : 1 h 30 min

  9. Overall bit rate : 14.7 Mb/s

  10. Movie name : Robot Carnival 1987 2160p HDR UHD BluRay DTS x265-10bit-HDS

  11. Encoded date : UTC 2022-05-12 02:07:48

  12. Writing application : mkvmerge v67.0.0 ('Under Stars') 64-bit

  13. Writing library : libebml v1.4.2 + libmatroska v1.6.4

  14. Video

  15. ID : 1

  16. Format : HEVC

  17. Format/Info : High Efficiency Video Coding

  18. Format profile : Main [email protected]@High

  19. HDR format : SMPTE ST 2086, HDR10 compatible

  20. Codec ID : V_MPEGH/ISO/HEVC

  21. Duration : 1 h 30 min

  22. Bit rate : 14.4 Mb/s

  23. Width : 2 964 pixels

  24. Height : 2 160 pixels

  25. Display aspect ratio : 1.372

  26. Frame rate mode : Constant

  27. Frame rate : 23.976 (24000/1001/53354) FPS

  28. Color space : YUV

  29. Chroma subsampling : 4:2:0

  30. Bit depth : 10 bits

  31. Bits/(Pixel*Frame) : 0.094

  32. Stream size : 9.10 GiB (98%)

  33. Title : @HDSky

  34. Writing library : x265 - H.265/HEVC codec

  35. Default : Yes

  36. Forced : No

  37. Color range : Limited

  38. Color primaries : BT.2020

  39. Transfer characteristics : PQ

  40. Matrix coefficients : BT.2020 non-constant

  41. Mastering display color primaries : Display P3

  42. Mastering display luminance : min: 0.0050 cd/m2, max: 1000 cd/m2

  43. Maximum Content Light Level : 1512 cd/m2

  44. Maximum Frame-Average Light Level : 766 cd/m2

  45. Audio

  46. ID : 2

  47. Format : DTS

  48. Format/Info : Digital Theater Systems

  49. Codec ID : A_DTS

  50. Duration : 1 h 30 min

  51. Bit rate mode : Constant

  52. Bit rate : 255 kb/s

  53. Channel(s) : 2 channels

  54. Channel layout : L R

  55. Sampling rate : 48.0 kHz

  56. Frame rate : 93.750 FPS (512 SPF)

  57. Bit depth : 24 bits

  58. Compression mode : Lossy

  59. Stream size : 165 MiB (2%)

  60. Title : Japanese

  61. Language : Japanese

  62. Default : Yes

  63. Forced : No

  64. Text #1

  65. ID : 3

  66. Format : PGS

  67. Muxing mode : zlib

  68. Codec ID : S_HDMV/PGS

  69. Codec ID/Info : Picture based subtitle format used on BDs/HD-DVDs

  70. Duration : 1 h 25 min

  71. Bit rate : 7 420 b/s

  72. Count of elements : 479

  73. Stream size : 4.54 MiB (0%)

  74. Title : CHS

  75. Language : Chinese

  76. Default : Yes

  77. Forced : No

  78. Text #2

  79. ID : 4

  80. Format : PGS

  81. Muxing mode : zlib

  82. Codec ID : S_HDMV/PGS

  83. Codec ID/Info : Picture based subtitle format used on BDs/HD-DVDs

  84. Duration : 1 h 25 min

  85. Bit rate : 7 683 b/s

  86. Count of elements : 479

  87. Stream size : 4.70 MiB (0%)

  88. Title : CHT

  89. Language : Chinese

  90. Default : Yes

  91. Forced : No

  92. Text #3

  93. ID : 5

  94. Format : PGS

  95. Muxing mode : zlib

  96. Codec ID : S_HDMV/PGS

  97. Codec ID/Info : Picture based subtitle format used on BDs/HD-DVDs

  98. Duration : 1 h 25 min

  99. Bit rate : 569 b/s

  100. Count of elements : 42

  101. Stream size : 356 KiB (0%)

  102. Title : ENG

  103. Language : English

  104. Default : Yes

  105. Forced : No

  106. Menu

  107. 00:00:00.000 : en:第 01 章

  108. 00:04:45.285 : en:第 02 章

  109. 00:14:11.851 : en:第 03 章

  110. 00:21:07.266 : en:第 04 章

  111. 00:40:31.429 : en:第 05 章

  112. 00:49:37.975 : en:第 06 章

  113. 01:01:26.683 : en:第 07 章

  114. 01:12:52.368 : en:第 08 章

  115. 01:23:03.187 : en:第 09 章


复制代码



文件下载


除非特别注明,本文『机器人嘉年华[简繁英字幕].Robot.Carnival.1987.2160p.HDR.UHD.BluRay.DTS.x265-10bit-ENTHD 9.27GB』来源于互联网机器人自动抓取,非本站原创。 浮游电影网不对本文拥有版权,如有侵犯,请联系邮箱:fuyouu#yandex.com[#换成@]投诉。我们会在15个工作日内删除。 但烦请转载时请标明出处:“本文转载于『浮游电影网』,原文地址:https://www.fuyouu.com/22097.html

评论吧骚年!

发表你的见解   

昵称*

E-mail*(建议输入,以便收到博主回复的提示邮件)

验证码*

您可以使用eMule或eMule Mod(Windows)、aMule(Win、Linux、Mac)等软件下载eD2k链接。。
eMule收藏集(.emulecollection)文件是您选中的所有链接的列表文件。eMule可以直接下载它们。
按住SHIFT键选择可以选中多个选择框。
可用文件名和大小选择器来选择文件。
文件名选择器帮您根据文件名称或后缀来选择文件。不分大小写。
符号使用:
和:空格( )、+
不包含:-
或:|
转义:一对英文引号("");
匹配开头:^
匹配结尾:$
例如:
选中所有名称中包含有“eMule”或“0.49c”字眼,但不包含有“exe”字眼的:emule|0.49c -exe
选中所有名称的开头是“eMule”,结尾是“0.49c”的:^emule 0.49c$
选中所有名称中带有“eMule 0.49c”的(必须是“eMule 0.49c”,中间没有别的字符,不能是“eMule fake 0.49c”),需要转义:"emule 0.49c"
大小选择器帮您根据文件大小选择文件。