当前位置: 首页 >> 欧美电影 >> 迈阿密风云[国英多音轨/简繁英字幕].Miami.Vice.2006.DC.BluRay.1080p.2Audio.DTS-HD.MA.5.1.x265.10bit-ALT 18.97GB >> 正文

迈阿密风云[国英多音轨/简繁英字幕].Miami.Vice.2006.DC.BluRay.1080p.2Audio.DTS-HD.MA.5.1.x265.10bit-ALT 18.97GB

2022年05月13日 21:39:00     电影发布:来源于网络     电影分类:欧美电影     评论(0)    

◎译 名 迈阿密风云 / 迈阿密风暴(港)

◎片 名 Miami Vice

◎年 代 2006

◎产 地 美国 / 德国

◎类 别 剧情 / 动作 / 惊悚 / 犯罪

◎语 言 英语 / 西班牙语

◎上映日期 2006-07-28(美国)

◎IMDb链接 https://www.imdb.com/title/tt0430357/

◎豆瓣评分 5.7/10 (14440人评价)

◎豆瓣链接 https://movie.douban.com/subject/1449962/

◎片 长 134分钟

◎导 演 迈克尔·曼 Michael Mann (id:1007003)

◎编 剧 迈克尔·曼 Michael Mann (id:1007003)

安东尼·耶科维奇 Anthony Yerkovich (id:1301466)

◎演 员 科林·法瑞尔 Colin Farrell (id:1084255)

杰米·福克斯 Jamie Foxx (id:1036329)

巩俐 Li Gong (id:1035641)

娜奥米·哈里斯 Naomie Harris (id:1049542)

塞伦·希德 Ciarán Hinds (id:1004586)

贾斯汀·塞洛克斯 Justin Theroux (id:1025199)

巴里·沙巴卡·亨利 Barry Shabaka Henley (id:1092804)

路易斯·托萨尔 Luis Tosar (id:1027448)

约翰·奥提兹 John Ortiz (id:1018110)

伊丽莎白·罗德里格斯 Elizabeth Rodriguez (id:1333382)

多米尼克·隆巴多兹 Domenick Lombardozzi (id:1000314)

埃迪·马森 Eddie Marsan (id:1291072)

伊萨赫·德·班克尔 Isaach De Bankolé (id:1022827)

约翰·浩克斯 John Hawkes (id:1100849)

汤姆·托尔斯 Tom Towles (id:1152583)

托尼·库兰 Tony Curran (id:1036415)

唐·弗莱 Don Frye (id:1195883)

帕沙·D.林奇尼科夫 Pasha D. Lychnikoff (id:1123535)

安娜·克里斯蒂娜·德奥利维拉 Ana Cristina de Oliveira (id:1069800)

Everlayn Borges (id:1224092)

马克·麦考利 Marc Macaulay (id:1116920)

迈克·普涅夫斯基 Mike Pniewski (id:1371890)

欧勒格·塔克塔罗夫 Oleg Taktarov (id:1049651)

伊兰·克里斯费尔德 Ilan Krigsfeld (id:1259405)

Gilbert Quintana (id:1241439)

Chris Astoyan Chris Astoyan (id:1203878)

阿什利·阿维斯 Ashley Avis (id:1230350)

Jeannie Belgrave Jeannie Belgrave (id:1191171)

埃里克·本德罗斯 Eric Bendross (id:1393130)

Robert Berson Robert Berson (id:1051451)

塔拉·卡迪纳尔 Tara Cardinal (id:1256337)

Alexandra Cheron (id:1258490)

Alexander Garcia (id:1258629)

Maurice Lavelle Maurice Lavelle (id:1072721)

Walter Medina Walter Medina (id:1173229)

Stella Oliveros (id:1253283)

Danny Pardo Danny Pardo (id:1236446)

弥敦·罗素 Nathan Russell (id:1365389)

吉米·斯达 Jimmy Star (id:1273873)

乔·维达 Joe Vida (id:1432857)

Breven Angaelica Warren Breven Angaelica Warren (id:1196167)

温迪·威尔斯·冈克尔 Wendy Wells-Gunkel (id:1432991)

David Danello (id:1227873)

徐光宇 Guangyu Xu (id:1324384)

安东尼·耶科维奇 Anthony Yerkovich (id:1301466)

迈克尔·曼 Michael Mann (id:1007003)

皮特·扬·布拉戈 Pieter Jan Brugge (id:1279483)

韦恩·莫里斯 Wayne Morris (id:1292561)

约翰·墨菲 John Murphy (id:1326645)

迪昂·毕比 Dion Beebe (id:1278213)

保罗·鲁贝尔 Paul Rubell (id:1296267)

Seth Reed Seth Reed (id:1295368)

Victor Kempster Victor Kempster (id:1288377)

吉姆·埃里克森 Jim Erickson (id:1303143)

詹蒂·叶茨 Janty Yates (id:1301441)

迈克尔·卡普兰 Michael Kaplan (id:1288109)

Mary Ann Valdes Mary Ann Valdes (id:1299784)

Allen Weisinger Allen Weisinger (id:1300632)

Tudor Jones Tudor Jones (id:1287904)

Ty Arnold Ty Arnold (id:1277439)

Richard Patterson Richard Patterson (id:1294096)

Robert Scifo Robert Scifo (id:1297060)

Robert Stadd Robert Stadd (id:1298227)

Bill Taylor Bill Taylor (id:1298968)

Andrea D'Amico Andrea D'Amico (id:1281681)

David S. Williams Jr. David S. Williams Jr. (id:1300940)

马克·贝克 Mat Beck (id:1278183)

曼尼·王 Manny Wong (id:1301196)

Fred Pienkos Fred Pienkos (id:1305243)

伊莱·贾拉 Eli Jarra (id:1305425)

Jack Noriaki Matsumoto Jack Noriaki Matsumoto (id:1309271)

Kaz Yoshida Kaz Yoshida (id:1310335)

凯伯·林 Kymber Lim (id:1290053)

◎简 介

美国南部城市迈阿密一直以来都是毒品犯罪的“茂盛”繁殖地。美国联邦调查局(FBI)更是从来都没有放松对这一带地区的监控。警方的卧底在一次毒品交易中惨遭杀害,上级要求桑尼(柯林·法瑞尔 Colin Farrell 饰)和里卡多(杰米·福克斯 Jamie Foxx 饰)扮成毒贩,卧底联系其首领蒙托亚(路伊斯·托沙 Luis Tosar 饰),查 明真相。卧底过程中,个性夸张的詹姆斯不知不觉中陷入了与性感女银行家伊莎贝拉(巩俐 饰)的私密恋情之中。然而,这个亚裔女人实际上就是本地毒品走私集团幕后的重要头目,并且是蒙托亚的女人。蒙托亚的生意代表兹托并不相信桑尼和里卡多,凭直觉感到他们有问题,对他们出处提防,并绑架了里卡多的女友,将这对不速之客置于死地。

  1. ##### MediaInfo ######

  2. General

  3. Unique ID : 137496484718753498635104720893907351783 (0x6770DC16662A87333568093EAB34B8E7)

  4. Complete name : Miami.Vice.2006.DC.BluRay.1080p.2Audio.DTS-HD.MA.5.1.x265.10bit-ALT.mkv

  5. Format : Matroska

  6. Format version : Version 4

  7. File size : 19.0 GiB

  8. Duration : 2 h 19 min

  9. Overall bit rate mode : Variable

  10. Overall bit rate : 19.5 Mb/s

  11. Encoded date : UTC 2022-05-11 11:17:28

  12. Writing application : mkvmerge v49.0.0 ('Sick Of Losing Soulmates') 64-bit

  13. Writing library : libebml v1.4.0 + libmatroska v1.6.1

  14. Video

  15. ID : 1

  16. Format : HEVC

  17. Format/Info : High Efficiency Video Coding

  18. Format profile : Main [email protected]@High

  19. Codec ID : V_MPEGH/ISO/HEVC

  20. Duration : 2 h 19 min

  21. Bit rate : 14.7 Mb/s

  22. Width : 1 920 pixels

  23. Height : 800 pixels

  24. Display aspect ratio : 2.40:1

  25. Frame rate mode : Constant

  26. Frame rate : 23.976 (24000/1001/53354) FPS

  27. Color space : YUV

  28. Chroma subsampling : 4:2:0

  29. Bit depth : 10 bits

  30. Bits/(Pixel*Frame) : 0.400

  31. Stream size : 14.3 GiB (76%)

  32. Title : HEVC, [email protected]@High, 24/1.001 fps @ 15386 kbps

  33. Writing library : x265 3.5+36-1f2c8da77:[Windows][GCC 11.2.0][64 bit] 10bit

  34. Encoding settings : cpuid=533541049071 / frame-threads=3 / numa-pools=8 / wpp / no-pmode / no-pme / no-psnr / no-ssim / log-level=2 / input-csp=1 / input-res=1920x800 / interlace=0 / total-frames=200261 / level-idc=51 / high-tier=1 / uhd-bd=0 / ref=5 / no-allow-non-conformance / no-repeat-headers / annexb / no-aud / no-eob / no-eos / no-hrd / info / hash=0 / no-temporal-layers / open-gop / min-keyint=24 / keyint=240 / gop-lookahead=0 / bframes=6 / b-adapt=2 / b-pyramid / bframe-bias=0 / rc-lookahead=40 / lookahead-slices=0 / NTMzNTQ=uuDQuD2mJt9fsCf / scenecut=40 / no-hist-scenecut / radl=0 / no-splice / no-intra-refresh / ctu=32 / min-cu-size=8 / no-rect / no-amp / max-tu-size=32 / tu-inter-depth=3 / tu-intra-depth=3 / limit-tu=4 / rdoq-level=2 / dynamic-rd=0.00 / no-ssim-rd / signhide / no-tskip / nr-intra=0 / nr-inter=0 / no-constrained-intra / no-strong-intra-smoothing / max-merge=4 / limit-refs=1 / limit-modes / me=3 / subme=4 / merange=25 / temporal-mvp / no-frame-dup / no-hme / weightp / weightb / no-analyze-src-pics / deblock=-3:-3 / no-sao / no-sao-non-deblock / rd=6 / selective-sao=0 / no-early-skip / rskip / no-fast-intra / no-tskip-fast / no-cu-lossless / b-intra / no-splitrd-skip / rdpenalty=0 / psy-rd=2.00 / psy-rdoq=1.00 / no-rd-refine / no-lossless / cbqpoffs=-2 / crqpoffs=-2 / rc=crf / crf=18.5 / qcomp=0.65 / qpstep=4 / stats-write=0 / stats-read=0 / vbv-maxrate=80000 / vbv-bufsize=80000 / vbv-init=0.9 / min-vbv-fullness=50.0 / max-vbv-fullness=80.0 / crf-max=0.0 / crf-min=0.0 / ipratio=1.40 / pbratio=1.30 / aq-mode=2 / aq-strength=0.85 / cutree / zone-count=0 / no-strict-cbr / qg-size=32 / no-rc-grain / qpmax=69 / qpmin=0 / no-const-vbv / sar=1 / overscan=0 / videoformat=5 / range=0 / colorprim=1 / transfer=1 / colormatrix=1 / chromaloc=0 / display-window=0 / cll=0,0 / min-luma=0 / max-luma=1023 / log2-max-poc-lsb=8 / vui-timing-info / vui-hrd-info / slices=1 / no-opt-qp-pps / no-opt-ref-list-length-pps / no-multi-pass-opt-rps / scenecut-bias=0.05 / hist-threshold=0.03 / no-opt-cu-delta-qp / no-aq-motion / no-hdr10 / no-hdr10-opt / no-dhdr10-opt / no-idr-recovery-sei / analysis-reuse-level=0 / analysis-save-reuse-level=0 / analysis-load-reuse-level=0 / scale-factor=0 / refine-intra=0 / refine-inter=0 / refine-mv=1 / refine-ctu-distortion=0 / no-limit-sao / ctu-info=0 / no-lowpass-dct / refine-analysis-type=0 / copy-pic=1 / max-ausize-factor=1.0 / no-dynamic-refine / no-single-sei / no-hevc-aq / no-svt / no-field / qp-adaptation-range=1.00 / scenecut-aware-qp=0conformance-window-offsets / right=0 / bottom=0 / NTMzNTQ= / decoder-max-rate=0 / no-vbv-live-multi-pass

  35. Language : English

  36. Default : Yes

  37. Forced : No

  38. Color range : Limited

  39. Color primaries : BT.709

  40. Transfer characteristics : BT.709

  41. Matrix coefficients : BT.709

  42. Audio #1

  43. ID : 2

  44. Format : DTS XLL

  45. Format/Info : Digital Theater Systems

  46. Commercial name : DTS-HD Master Audio

  47. Codec ID : A_DTS

  48. Duration : 2 h 19 min

  49. Bit rate mode : Variable

  50. Bit rate : 3 744 kb/s

  51. Channel(s) : 6 channels

  52. Channel layout : C L R Ls Rs LFE

  53. Sampling rate : 48.0 kHz

  54. Frame rate : 93.750 FPS (512 SPF)

  55. Bit depth : 24 bits

  56. Compression mode : Lossless

  57. Stream size : 3.64 GiB (19%)

  58. Title : English DTS-HD Master Audio 5.1 @ 3744 kbps

  59. Language : English

  60. Default : Yes

  61. Forced : No

  62. Audio #2

  63. ID : 3

  64. Format : AC-3

  65. Format/Info : Audio Coding 3

  66. Commercial name : Dolby Digital

  67. Codec ID : A_AC3

  68. Duration : 2 h 19 min

  69. Bit rate mode : Constant

  70. Bit rate : 192 kb/s

  71. Channel(s) : 2 channels

  72. Channel layout : L R

  73. Sampling rate : 48.0 kHz

  74. Frame rate : 31.250 FPS (1536 SPF)

  75. Compression mode : Lossy

  76. Stream size : 191 MiB (1%)

  77. Title : English Dolby Digital Audio 2.0 @ 192 kbps Commentary

  78. Language : English

  79. Service kind : Complete Main

  80. Default : No

  81. Forced : No

  82. Audio #3

  83. ID : 4

  84. Format : DTS

  85. Format/Info : Digital Theater Systems

  86. Codec ID : A_DTS

  87. Duration : 2 h 19 min

  88. Bit rate mode : Constant

  89. Bit rate : 754 kb/s

  90. Channel(s) : 6 channels

  91. Channel layout : C L R Ls Rs LFE

  92. Sampling rate : 48.0 kHz

  93. Frame rate : 93.750 FPS (512 SPF)

  94. Bit depth : 24 bits

  95. Compression mode : Lossy

  96. Stream size : 751 MiB (4%)

  97. Title : Mandarin DTS 5.1 @ 755 kbps

  98. Language : Chinese

  99. Default : No

  100. Forced : No

  101. Text #1

  102. ID : 5

  103. Format : PGS

  104. Codec ID : S_HDMV/PGS

  105. Codec ID/Info : Picture based subtitle format used on BDs/HD-DVDs

  106. Duration : 2 h 10 min

  107. Bit rate : 26.6 kb/s

  108. Count of elements : 2322

  109. Stream size : 24.8 MiB (0%)

  110. Title : Eng/SUP

  111. Language : English

  112. Default : No

  113. Forced : No

  114. Text #2

  115. ID : 6

  116. Format : PGS

  117. Codec ID : S_HDMV/PGS

  118. Codec ID/Info : Picture based subtitle format used on BDs/HD-DVDs

  119. Duration : 2 h 12 min

  120. Bit rate : 23.7 kb/s

  121. Count of elements : 2817

  122. Stream size : 22.5 MiB (0%)

  123. Title : Chs/SUP 简体

  124. Language : Chinese

  125. Default : Yes

  126. Forced : No

  127. Text #3

  128. ID : 7

  129. Format : PGS

  130. Codec ID : S_HDMV/PGS

  131. Codec ID/Info : Picture based subtitle format used on BDs/HD-DVDs

  132. Duration : 2 h 12 min

  133. Bit rate : 24.1 kb/s

  134. Count of elements : 2817

  135. Stream size : 22.9 MiB (0%)

  136. Title : Cht/SUP 繁体

  137. Language : Chinese

  138. Default : No

  139. Forced : No

  140. Menu

  141. 00:00:00.000 : en:第 01 章

  142. 00:09:38.328 : en:第 02 章

  143. 00:17:59.161 : en:第 03 章

  144. 00:23:51.930 : en:第 04 章

  145. 00:29:13.502 : en:第 05 章

  146. 00:40:09.991 : en:第 06 章

  147. 00:52:14.048 : en:第 07 章

  148. 00:59:34.154 : en:第 08 章

  149. 01:04:10.513 : en:第 09 章

  150. 01:09:51.437 : en:第 10 章

  151. 01:19:02.029 : en:第 11 章

  152. 01:25:37.382 : en:第 12 章

  153. 01:31:07.337 : en:第 13 章

  154. 01:35:33.436 : en:第 14 章

  155. 01:44:54.497 : en:第 15 章

  156. 01:48:40.097 : en:第 16 章

  157. 01:53:44.317 : en:第 17 章

  158. 01:58:37.485 : en:第 18 章

  159. 02:07:34.772 : en:第 19 章

  160. 02:13:09.982 : en:第 20 章


复制代码


文件下载


除非特别注明,本文『迈阿密风云[国英多音轨/简繁英字幕].Miami.Vice.2006.DC.BluRay.1080p.2Audio.DTS-HD.MA.5.1.x265.10bit-ALT 18.97GB』来源于互联网机器人自动抓取,非本站原创。 浮游电影网不对本文拥有版权,如有侵犯,请联系邮箱:fuyouu#yandex.com[#换成@]投诉。我们会在15个工作日内删除。 但烦请转载时请标明出处:“本文转载于『浮游电影网』,原文地址:https://www.fuyouu.com/22096.html

评论吧骚年!

发表你的见解   

昵称*

E-mail*(建议输入,以便收到博主回复的提示邮件)

验证码*

您可以使用eMule或eMule Mod(Windows)、aMule(Win、Linux、Mac)等软件下载eD2k链接。。
eMule收藏集(.emulecollection)文件是您选中的所有链接的列表文件。eMule可以直接下载它们。
按住SHIFT键选择可以选中多个选择框。
可用文件名和大小选择器来选择文件。
文件名选择器帮您根据文件名称或后缀来选择文件。不分大小写。
符号使用:
和:空格( )、+
不包含:-
或:|
转义:一对英文引号("");
匹配开头:^
匹配结尾:$
例如:
选中所有名称中包含有“eMule”或“0.49c”字眼,但不包含有“exe”字眼的:emule|0.49c -exe
选中所有名称的开头是“eMule”,结尾是“0.49c”的:^emule 0.49c$
选中所有名称中带有“eMule 0.49c”的(必须是“eMule 0.49c”,中间没有别的字符,不能是“eMule fake 0.49c”),需要转义:"emule 0.49c"
大小选择器帮您根据文件大小选择文件。