当前位置: 首页 >> 日韩电影 >> 摄影机不要停![中文字幕].Don't.Stop.Shooting.2017.1080p.GaragePlay.WEB-DL.AAC2.0.x264-CTRLWEB 2.79GB >> 正文

摄影机不要停![中文字幕].Don't.Stop.Shooting.2017.1080p.GaragePlay.WEB-DL.AAC2.0.x264-CTRLWEB 2.79GB

2022年05月13日 21:37:31     电影发布:来源于网络     电影分类:日韩电影     评论(0)    

◎译 名 摄影机不要停! / 尸杀片场(港) / 一尸到底(台) / One Cut of the Dead / Kamera o tomeru na!

◎片 名 カメラを止めるな!

◎年 代 2017

◎产 地 日本

◎类 别 喜剧 / 恐怖

◎语 言 日语

◎上映日期 2017-11-04(东京首映) / 2018-06-23(日本)

◎IMDb链接 https://www.imdb.com/title/tt7914416/

◎豆瓣评分 8.2/10 (175180人评价)

◎豆瓣链接 https://movie.douban.com/subject/30234315/

◎片 长 96分钟

◎导 演 上田慎一郎 Shin'ichir? Ueda (id:1396813)

◎编 剧 上田慎一郎 Shin'ichir? Ueda (id:1396813)

◎演 员 滨津隆之 Takayuki Hamatsu (id:1400576)

真鱼 Mao (id:1406283)

主浜晴美 Harumi Shuhama (id:1406271)

秋山柚稀 Yuzuki Akiyama (id:1402361)

长屋和彰 Nagaya Kazuaki (id:1402501)

细井学 Manabu Hosoi (id:1406280)

市原洋 Hiroshi Ichihara (id:1406284)

山崎俊太郎 Shuntar? Yamazaki (id:1406274)

大泽真一郎 Shin'ichir? ?sawa (id:1406272)

竹原芳子 Yoshiko Takehara (id:1406276)

吉田美纪 Miki Yoshida (id:1406273)

合田纯奈 Ayana G?da (id:1406281)

浅森咲希奈 Sakina Asamori (id:1406285)

山口友和 Tomokazu Yamaguchi (id:1406275)

藤村拓矢 Takuya Fujimura (id:1406282)

岩合智史 Satoshi Iwag? (id:1406279)

高桥恭子 Ky?ko Takahashi (id:1406277)

生见司织 Nukumi Shiori (id:1406536)

上田慎一郎 Shin'ichir? Ueda (id:1396813)

◎简 介

郊外一座废弃的工厂内,一支摄制组正在拍摄一部粗糙简陋的僵尸片。导演日暮隆之(滨津隆之 饰)不满女主角松本逢花(秋山ゆずき 饰)的演技,因此暴跳如雷,大吼大叫。在工作人员晴美(しゅはまはるみ 饰)的建议下,剧组暂时停止拍摄。休息间隙,晴美向松本以及饰演僵尸的男演员神谷和明(长屋和彰 饰)讲述了这座工厂在二战期间的恐怖旧事。就在此时,不祥的巨响突然传来,未过多久,一名工作人员化作僵尸突然出现,对其他剧组成员展开疯狂啃咬。演职员们四散而逃,而疯狂的导演却举起摄像机,开始了他梦寐以求的电影的拍摄。

30多分钟的血腥屠杀,令所有人始料未及的是,这还并不是这部恐怖电影的全部!

◎获奖情况 (共15项)

第42届日本电影学院奖 (2019)

话题奖 最具话题影片奖

最佳影片(提名)

最佳导演(提名)

└──上田慎一郎 (id:1396813)

最佳编剧(提名)

└──上田慎一郎 (id:1396813)

最佳男主角(提名)

└──滨津隆之 (id:1400576)

最佳配乐(提名)

最佳摄影(提名)

最佳录音(提名)

最佳剪辑

第13届亚洲电影大奖 (2019)

最佳新导演(提名)

└──上田慎一郎 (id:1396813)

第61届日本电影蓝丝带奖 (2019)

最佳影片

年度十佳日本电影

第43届报知映画赏 (2018)

特别奖

第5届豆瓣电影年度榜单 (2018)

评分最高的日本电影(提名)

评分最高的喜剧片(提名)

  1. ##### MediaInfo ######

  2. General

  3. Unique ID : 70762378584946202751020599302304439808 (0x353C56A06AF50C347C57DD333B161E00)

  4. Complete name : Don't.Stop.Shooting.2017.1080p.GaragePlay.WEB-DL.AAC2.0.x264-CTRLWEB.mkv

  5. Format : Matroska

  6. Format version : Version 4

  7. File size : 2.79 GiB

  8. Duration : 1 h 35 min

  9. Overall bit rate : 4 165 kb/s

  10. Encoded date : UTC 2022-05-11 15:57:24

  11. Writing application : mkvmerge v63.0.0 ('Everything') 32-bit

  12. Writing library : libebml v1.4.2 + libmatroska v1.6.4

  13. Video

  14. ID : 1

  15. Format : AVC

  16. Format/Info : Advanced Video Codec

  17. Format profile : [email protected]

  18. Format settings : CABAC / 3 Ref Frames

  19. Format settings, CABAC : Yes

  20. Format settings, Reference frames : 3 frames

  21. Format settings, GOP : M=1, N=60

  22. Codec ID : V_MPEG4/ISO/AVC

  23. Duration : 1 h 35 min

  24. Bit rate : 4 000 kb/s

  25. Width : 1 920 pixels

  26. Height : 1 080 pixels

  27. Display aspect ratio : 16:9

  28. Frame rate mode : Constant

  29. Frame rate : 29.970 (29970/1000/53354) FPS

  30. Color space : YUV

  31. Chroma subsampling : 4:2:0

  32. Bit depth : 8 bits

  33. Scan type : Progressive

  34. Bits/(Pixel*Frame) : 0.064

  35. Stream size : 2.70 GiB (97%)

  36. Writing library : x264 core 148 r2762 90a61ec

  37. Encoding settings : cabac=1 / ref=3 / deblock=1:0:0 / analyse=0x1:0x111 / me=hex / subme=7 / psy=1 / psy_rd=1.00:0.00 / mixed_ref=1 / me_range=16 / chroma_me=1 / trellis=1 / 8x8dct=0 / cqm=0 / deadzone=21,11 / fast_pskip=1 / chroma_qp_offset=-2 / threads=12 / lookahead_threads=2 / sliced_threads=0 / nr=0 / decimate=1 / interlaced=0 / NTMzNTQ= / bluray_compat=0 / constrained_intra=0 / bframes=0 / weightp=2 / keyint=60 / keyint_min=31 / scenecut=0 / intra_refresh=0 / rc_lookahead=40 / rc=abr / mbtree=1 / bitrate=4000 / ratetol=1.0 / qcomp=0.60 / qpmin=0 / qpmax=69 / qpstep=4 / NTMzNTQ=LmsMAP37EqsCpk / ip_ratio=1.40 / aq=1:1.00

  38. Default : Yes

  39. Forced : No

  40. Audio

  41. ID : 2

  42. Format : AAC LC

  43. Format/Info : Advanced Audio Codec Low Complexity

  44. Codec ID : A_AAC-2

  45. Duration : 1 h 35 min

  46. Bit rate : 129 kb/s

  47. Channel(s) : 2 channels

  48. Channel layout : L R

  49. Sampling rate : 48.0 kHz

  50. Frame rate : 46.875 FPS (1024 SPF)

  51. Compression mode : Lossy

  52. Stream size : 88.8 MiB (3%)

  53. Language : Japanese

  54. Default : Yes

  55. Forced : No


复制代码


文件下载


除非特别注明,本文『摄影机不要停![中文字幕].Don't.Stop.Shooting.2017.1080p.GaragePlay.WEB-DL.AAC2.0.x264-CTRLWEB 2.79GB』来源于互联网机器人自动抓取,非本站原创。 浮游电影网不对本文拥有版权,如有侵犯,请联系邮箱:fuyouu#yandex.com[#换成@]投诉。我们会在15个工作日内删除。 但烦请转载时请标明出处:“本文转载于『浮游电影网』,原文地址:https://www.fuyouu.com/22095.html

评论吧骚年!

发表你的见解   

昵称*

E-mail*(建议输入,以便收到博主回复的提示邮件)

验证码*

您可以使用eMule或eMule Mod(Windows)、aMule(Win、Linux、Mac)等软件下载eD2k链接。。
eMule收藏集(.emulecollection)文件是您选中的所有链接的列表文件。eMule可以直接下载它们。
按住SHIFT键选择可以选中多个选择框。
可用文件名和大小选择器来选择文件。
文件名选择器帮您根据文件名称或后缀来选择文件。不分大小写。
符号使用:
和:空格( )、+
不包含:-
或:|
转义:一对英文引号("");
匹配开头:^
匹配结尾:$
例如:
选中所有名称中包含有“eMule”或“0.49c”字眼,但不包含有“exe”字眼的:emule|0.49c -exe
选中所有名称的开头是“eMule”,结尾是“0.49c”的:^emule 0.49c$
选中所有名称中带有“eMule 0.49c”的(必须是“eMule 0.49c”,中间没有别的字符,不能是“eMule fake 0.49c”),需要转义:"emule 0.49c"
大小选择器帮您根据文件大小选择文件。