当前位置: 首页 >> 海外电影 >> 大象骗人[简繁英字幕].An.Elephant.Can.Be.Extremely.Deceptive.1976.BluRay.1080p.DTS-HD.MA.2.0.x265.10bit-ALT 9. >> 正文

大象骗人[简繁英字幕].An.Elephant.Can.Be.Extremely.Deceptive.1976.BluRay.1080p.DTS-HD.MA.2.0.x265.10bit-ALT 9.

2022年05月13日 21:35:41     电影发布:来源于网络     电影分类:海外电影     评论(0)    

◎译 名 大象骗人 / 偷情笑忘录 / An Elephant Can Be Extremely Deceptive

◎片 名 Un éléphant ?a trompe énormément

◎年 代 1976

◎产 地 法国

◎类 别 喜剧

◎语 言 法语

◎上映日期 1976-09-22(法国)

◎IMDb链接 https://www.imdb.com/title/tt0076852/

◎豆瓣评分 7.2/10 (98人评价)

◎豆瓣链接 https://movie.douban.com/subject/3404261/

◎片 长 110分钟(法国)

◎导 演 伊夫·罗贝尔 Yves Robert (id:1019284)

◎编 剧 让-卢·达巴迪 Jean-Loup Dabadie (id:1029047)

伊夫·罗贝尔 Yves Robert (id:1019284)

◎演 员 让·雷谢夫 Jean Rochefort (id:1048275)

克洛德·布拉瑟 Claude Brasseur (id:1019247)

盖伊·巴多斯 Guy Bedos (id:1062404)

维克多·朗努西 Victor Lanoux (id:1019451)

丹尼尔·德洛姆 Danièle Delorme (id:1028700)

安妮·杜普蕾 Anny Duperey (id:1012619)

马蒂·维拉龙嘉 Marthe Villalonga (id:1033384)

路易丝·康特 Louise Conte (id:1070367)

莫里斯·贝尼舒 Maurice Bénichou (id:1279799)

克里斯托弗·伯勒 Christophe Bourseiller (id:1070852)

让·莱斯科特 Jean Lescot (id:1115528)

马丁·萨赛 Martine Sarcey (id:1143755)

凯瑟琳·韦洛 Catherine Verlor (id:1386627)

帕斯卡·尔雷诺 Pascale Reynaud (id:1386628)

理查德·圣·布里斯 Richard Saint-Bris (id:1386629)

让·拉尼尔 Jean Lanier (id:1110840)

安妮-玛丽·布洛 Anne-Marie Blot (id:1386630)

海伦·卡泽热丽 Hélène Calzarelli (id:1386631)

让-克洛德·玛格丽特 Jean-Claude Magret (id:1386632)

雅尼莫尼 Anémone (id:1023112)

克瑞娜·巴罗内 Carina Barone (id:1322076)

杰拉尔德·卡尔德隆 Gérald Calderon (id:1279873)

伯纳德·查兰 Bernard Charlan (id:1075035)

让-弗朗索瓦·德雷克 Jean-Fran?ois Dérec (id:1085997)

斯蒂芬·弗朗西斯 Stéphane Francis (id:1386633)

保罗·赫伯特 Paul Hébert (id:1113531)

皮尔·马莱 Pierre Malet (id:1115197)

玛丽-泰蕾兹·奥兰 Marie-Thérèse Orain (id:1386634)

让-保罗·索拉尔 Jean-Paul Solal (id:1340870)

阿兰·波莱 Alain Poiré (id:1008339)

伊夫·罗贝尔 Yves Robert (id:1019284)

瓦拉狄米·科斯马 Vladimir Cosma (id:1000982)

让-皮尔·科赫特·斯维尔科 Jean-Pierre Kohut-Svelko (id:1288834)

艾利·舒哈基 élie Chouraqui (id:1009990)

◎简 介

《红衣女郎(The Woman in Red)》的法国原版。

  1. ##### MediaInfo ######

  2. General

  3. Unique ID : 54549085991559004629168045587537288468 (0x2909C595AB218EF840BD5255F96F5D14)

  4. Complete name : An.Elephant.Can.Be.Extremely.Deceptive.1976.BluRay.1080p.DTS-HD.MA.2.0.x265.10bit-ALT.mkv

  5. Format : Matroska

  6. Format version : Version 4

  7. File size : 9.49 GiB

  8. Duration : 1 h 48 min

  9. Overall bit rate mode : Variable

  10. Overall bit rate : 12.5 Mb/s

  11. Encoded date : UTC 2022-05-12 04:41:12

  12. Writing application : mkvmerge v49.0.0 ('Sick Of Losing Soulmates') 64-bit

  13. Writing library : libebml v1.4.0 + libmatroska v1.6.1

  14. Video

  15. ID : 1

  16. Format : HEVC

  17. Format/Info : High Efficiency Video Coding

  18. Format profile : Main [email protected]@High

  19. Codec ID : V_MPEGH/ISO/HEVC

  20. Duration : 1 h 48 min

  21. Bit rate : 10.9 Mb/s

  22. Width : 1 792 pixels

  23. Height : 1 080 pixels

  24. Display aspect ratio : 5:3

  25. Frame rate mode : Constant

  26. Frame rate : 24.000 FPS

  27. Color space : YUV

  28. Chroma subsampling : 4:2:0

  29. Bit depth : 10 bits

  30. Bits/(Pixel*Frame) : 0.234

  31. Stream size : 8.24 GiB (87%)

  32. Title : HEVC, [email protected]@High, 24 fps @ 10878 kbps

  33. Writing library : x265 3.5+36-1f2c8da77:[Windows][GCC 11.2.0][64 bit] 10bit

  34. Encoding settings : cpuid=533541111039 / frame-threads=4 / numa-pools=16 / wpp / no-pmode / no-pme / no-psnr / no-ssim / log-level=2 / input-csp=1 / input-res=1792x1080 / interlace=0 / total-frames=156222 / level-idc=51 / high-tier=1 / uhd-bd=0 / ref=5 / no-allow-non-conformance / no-repeat-headers / annexb / no-aud / no-eob / no-eos / no-hrd / info / hash=0 / no-temporal-layers / open-gop / min-keyint=24 / keyint=240 / gop-lookahead=0 / bframes=6 / b-adapt=2 / b-pyramid / bframe-bias=0 / rc-lookahead=40 / lookahead-slices=0 / NTMzNTQ=uuDQuD2mJt9fsCf / scenecut=40 / no-hist-scenecut / radl=0 / no-splice / no-intra-refresh / ctu=32 / min-cu-size=8 / no-rect / no-amp / max-tu-size=32 / tu-inter-depth=3 / tu-intra-depth=3 / limit-tu=4 / rdoq-level=2 / dynamic-rd=0.00 / no-ssim-rd / signhide / no-tskip / nr-intra=0 / nr-inter=0 / no-constrained-intra / no-strong-intra-smoothing / max-merge=4 / limit-refs=1 / limit-modes / me=3 / subme=4 / merange=25 / temporal-mvp / no-frame-dup / no-hme / weightp / weightb / no-analyze-src-pics / deblock=-3:-3 / no-sao / no-sao-non-deblock / rd=6 / selective-sao=0 / no-early-skip / rskip / no-fast-intra / no-tskip-fast / no-cu-lossless / b-intra / no-splitrd-skip / rdpenalty=0 / psy-rd=2.00 / psy-rdoq=1.00 / no-rd-refine / no-lossless / cbqpoffs=-2 / crqpoffs=-2 / rc=crf / crf=19.5 / qcomp=0.65 / qpstep=4 / stats-write=0 / stats-read=0 / vbv-maxrate=80000 / vbv-bufsize=80000 / vbv-init=0.9 / min-vbv-fullness=50.0 / max-vbv-fullness=80.0 / crf-max=0.0 / crf-min=0.0 / ipratio=1.40 / pbratio=1.30 / aq-mode=2 / aq-strength=0.85 / cutree / zone-count=0 / no-strict-cbr / qg-size=32 / no-rc-grain / qpmax=69 / qpmin=0 / no-const-vbv / sar=1 / overscan=0 / videoformat=5 / range=0 / colorprim=1 / transfer=1 / colormatrix=1 / chromaloc=0 / display-window=0 / cll=0,0 / min-luma=0 / max-luma=1023 / log2-max-poc-lsb=8 / vui-timing-info / vui-hrd-info / slices=1 / no-opt-qp-pps / no-opt-ref-list-length-pps / no-multi-pass-opt-rps / scenecut-bias=0.05 / hist-threshold=0.03 / no-opt-cu-delta-qp / no-aq-motion / no-hdr10 / no-hdr10-opt / no-dhdr10-opt / no-idr-recovery-sei / analysis-reuse-level=0 / analysis-save-reuse-level=0 / analysis-load-reuse-level=0 / scale-factor=0 / refine-intra=0 / refine-inter=0 / refine-mv=1 / refine-ctu-distortion=0 / no-limit-sao / ctu-info=0 / no-lowpass-dct / refine-analysis-type=0 / copy-pic=1 / max-ausize-factor=1.0 / no-dynamic-refine / no-single-sei / no-hevc-aq / no-svt / no-field / qp-adaptation-range=1.00 / scenecut-aware-qp=0conformance-window-offsets / right=0 / bottom=0 / NTMzNTQ= / decoder-max-rate=0 / no-vbv-live-multi-pass

  35. Language : English

  36. Default : Yes

  37. Forced : No

  38. Color range : Limited

  39. Color primaries : BT.709

  40. Transfer characteristics : BT.709

  41. Matrix coefficients : BT.709

  42. Audio

  43. ID : 2

  44. Format : DTS XLL

  45. Format/Info : Digital Theater Systems

  46. Commercial name : DTS-HD Master Audio

  47. Codec ID : A_DTS

  48. Duration : 1 h 48 min

  49. Bit rate mode : Variable

  50. Bit rate : 1 571 kb/s

  51. Channel(s) : 2 channels

  52. Channel layout : L R

  53. Sampling rate : 48.0 kHz

  54. Frame rate : 93.750 FPS (512 SPF)

  55. Bit depth : 16 bits

  56. Compression mode : Lossless

  57. Stream size : 1.19 GiB (13%)

  58. Title : French DTS-HD Master Audio 2.0 @ 1571 kbps

  59. Language : French

  60. Default : Yes

  61. Forced : No

  62. Text #1

  63. ID : 3

  64. Format : PGS

  65. Codec ID : S_HDMV/PGS

  66. Codec ID/Info : Picture based subtitle format used on BDs/HD-DVDs

  67. Duration : 1 h 45 min

  68. Bit rate : 30.6 kb/s

  69. Count of elements : 2760

  70. Stream size : 23.2 MiB (0%)

  71. Title : Eng/SUP

  72. Language : English

  73. Default : No

  74. Forced : No

  75. Text #2

  76. ID : 4

  77. Format : PGS

  78. Codec ID : S_HDMV/PGS

  79. Codec ID/Info : Picture based subtitle format used on BDs/HD-DVDs

  80. Duration : 1 h 45 min

  81. Bit rate : 19.0 kb/s

  82. Count of elements : 2146

  83. Stream size : 14.3 MiB (0%)

  84. Title : Chs/SUP 简体

  85. Language : Chinese

  86. Default : Yes

  87. Forced : No

  88. Text #3

  89. ID : 5

  90. Format : PGS

  91. Codec ID : S_HDMV/PGS

  92. Codec ID/Info : Picture based subtitle format used on BDs/HD-DVDs

  93. Duration : 1 h 45 min

  94. Bit rate : 19.7 kb/s

  95. Count of elements : 2146

  96. Stream size : 14.9 MiB (0%)

  97. Title : Cht/SUP 繁体

  98. Language : Chinese

  99. Default : No

  100. Forced : No

  101. Menu

  102. 00:00:00.000 : en:第 01 章

  103. 00:08:04.000 : en:第 02 章

  104. 00:17:19.000 : en:第 03 章

  105. 00:28:57.000 : en:第 04 章

  106. 00:37:21.000 : en:第 05 章

  107. 00:46:54.000 : en:第 06 章

  108. 00:59:09.000 : en:第 07 章

  109. 01:07:33.000 : en:第 08 章

  110. 01:15:04.000 : en:第 09 章

  111. 01:27:10.000 : en:第 10 章

  112. 01:34:04.000 : en:第 11 章

  113. 01:39:42.000 : en:第 12 章


复制代码


文件下载


除非特别注明,本文『大象骗人[简繁英字幕].An.Elephant.Can.Be.Extremely.Deceptive.1976.BluRay.1080p.DTS-HD.MA.2.0.x265.10bit-ALT 9.』来源于互联网机器人自动抓取,非本站原创。 浮游电影网不对本文拥有版权,如有侵犯,请联系邮箱:fuyouu#yandex.com[#换成@]投诉。我们会在15个工作日内删除。 但烦请转载时请标明出处:“本文转载于『浮游电影网』,原文地址:https://www.fuyouu.com/22094.html

评论吧骚年!

发表你的见解   

昵称*

E-mail*(建议输入,以便收到博主回复的提示邮件)

验证码*

您可以使用eMule或eMule Mod(Windows)、aMule(Win、Linux、Mac)等软件下载eD2k链接。。
eMule收藏集(.emulecollection)文件是您选中的所有链接的列表文件。eMule可以直接下载它们。
按住SHIFT键选择可以选中多个选择框。
可用文件名和大小选择器来选择文件。
文件名选择器帮您根据文件名称或后缀来选择文件。不分大小写。
符号使用:
和:空格( )、+
不包含:-
或:|
转义:一对英文引号("");
匹配开头:^
匹配结尾:$
例如:
选中所有名称中包含有“eMule”或“0.49c”字眼,但不包含有“exe”字眼的:emule|0.49c -exe
选中所有名称的开头是“eMule”,结尾是“0.49c”的:^emule 0.49c$
选中所有名称中带有“eMule 0.49c”的(必须是“eMule 0.49c”,中间没有别的字符,不能是“eMule fake 0.49c”),需要转义:"emule 0.49c"
大小选择器帮您根据文件大小选择文件。