当前位置: 首页 >> 欧美电影 >> 末路狂花[国英多音轨/中英字幕].Thelma.and.Louise.1991.BluRay.1080p.x265.10bit.3Audio-MiniHD 4.83GB >> 正文

末路狂花[国英多音轨/中英字幕].Thelma.and.Louise.1991.BluRay.1080p.x265.10bit.3Audio-MiniHD 4.83GB

2022年05月12日 23:00:46     电影发布:来源于网络     电影分类:欧美电影     评论(0)    

◎译 名 末路狂花 / 塞尔玛与路易丝

◎片 名 Thelma & Louise

◎年 代 1991

◎产 地 美国 / 英国 / 法国

◎类 别 剧情 / 惊悚 / 犯罪

◎语 言 英语

◎上映日期 1991-05-24(美国) / 1991-05-29(法国)

◎IMDb链接 https://www.imdb.com/title/tt0103074/

◎豆瓣评分 8.9/10 (209988人评价)

◎豆瓣链接 https://movie.douban.com/subject/1291992/

◎片 长 130 分钟

◎导 演 雷德利·斯科特 Ridley Scott (id:1054416)

◎编 剧 卡莉·克里 Callie Khouri (id:1036971)

◎演 员 吉娜·戴维斯 Geena Davis (id:1006979)

苏珊·萨兰登 Susan Sarandon (id:1054392)

哈威·凯特尔 Harvey Keitel (id:1048131)

迈克尔·马德森 Michael Madsen (id:1027816)

布拉德·皮特 Brad Pitt (id:1054452)

马科·圣约翰 Marco St. John (id:1045298)

谢里·德赛 Shelly Desai (id:1081567)

根·斯沃福德 Ken Swofford (id:1153116)

杰森·贝盖 Jason Beghe (id:1032255)

卢辛达·珍妮 Lucinda Jenney (id:1106360)

蒂莫西·卡哈特 Timothy Carhart (id:1074207)

斯蒂芬·托布罗斯基 Stephen Tobolowsky (id:1019062)

克里斯托弗·麦克唐纳 Christopher McDonald (id:1055787)

Mimi Polk Gitlin Mimi Polk Gitlin (id:1294671)

雷德利·斯科特 Ridley Scott (id:1054416)

汉斯·季默 Hans Zimmer (id:1054386)

汤姆·诺伯 Thom Noble (id:1293221)

Anne H. Ahrens Anne H. Ahrens (id:1276878)

丽莎·迪恩 Lisa Dean (id:1282110)

Leslie Ann Anderson Leslie Ann Anderson (id:1277218)

Bonita DeHaven Bonita DeHaven (id:1282150)

Karl Wesson Karl Wesson (id:1300724)

史蒂夫·拉波特 Steve LaPorte (id:1289183)

Martin Jedlicka Martin Jedlicka (id:1287645)

◎简 介

该片被认为是向男权社会发出抗争的女性主义电影代表作。

生活在沉闷与琐碎家务中的家庭主妇赛尔玛(Geena Davis)与在某间咖啡厅做女侍应生的闺中密友路易丝(Susan Sarandon)对平凡的生活与工作产生厌倦后,结伴一起外出旅游散心。路上,在某家酒吧外的停车厂, 赛尔玛险遭无名男子强暴,幸好路易丝及时赶到,拔枪将该男子射杀。惊慌失措的两人掉头逃亡,自此踏上不归路,过程中两人性格均有了很重大的改变。

◎获奖情况 (共5项)

第64届奥斯卡金像奖 (1992)

最佳导演(提名)

└──雷德利·斯科特 (id:1054416)

最佳女主角(提名)

最佳原创剧本

└──卡莉·克里 (id:1036971)

最佳摄影(提名)

└──艾德里安·比德尔 (id:1009791)

最佳剪辑(提名)

└──汤姆·诺伯 (id:1293221)

  1. ##### MediaInfo ######

  2. General

  3. Unique ID : 177317389208569544338473765617550972854 (0x8566164299982CBF9C478D0A5BF357B6)

  4. Complete name : Thelma.and.Louise.1991.BluRay.1080p.x265.10bit.3Audio-MiniHD.mkv

  5. Format : Matroska

  6. Format version : Version 4

  7. File size : 4.83 GiB

  8. Duration : 2 h 9 min

  9. Overall bit rate : 5 336 kb/s

  10. Encoded date : UTC 2016-07-20 13:32:15

  11. Writing application : mkvmerge v9.1.0 ('Little Earthquakes') 32bit

  12. Writing library : libebml v1.3.3 + libmatroska v1.4.4

  13. Video

  14. ID : 1

  15. Format : HEVC

  16. Format/Info : High Efficiency Video Coding

  17. Format profile : Main [email protected]@Main

  18. Codec ID : V_MPEGH/ISO/HEVC

  19. Duration : 2 h 9 min

  20. Bit rate : 4 024 kb/s

  21. Width : 1 920 pixels

  22. Height : 816 pixels

  23. Display aspect ratio : 2.35:1

  24. Frame rate mode : Constant

  25. Frame rate : 23.976 (24000/1001/53354) FPS

  26. Color space : YUV

  27. Chroma subsampling : 4:2:0

  28. Bit depth : 10 bits

  29. Bits/(Pixel*Frame) : 0.107

  30. Stream size : 3.64 GiB (75%)

  31. Writing library : x265 1.9+229-a932b4366235:[Windows][GCC 5.3.1][64 bit] 10bit

  32. Encoding settings : wpp / ctu=32 / min-cu-size=8 / max-tu-size=16 / tu-intra-depth=2 / tu-inter-depth=2 / me=3 / subme=5 / merange=22 / no-rect / no-amp / max-merge=3 / temporal-mvp / no-early-skip / rskip / rdpenalty=1 / no-tskip / no-tskip-fast / no-strong-intra-smoothing / no-lossless / no-cu-lossless / no-constrained-intra / no-fast-intra / no-open-gop / no-temporal-layers / interlace=0 / keyint=360 / min-keyint=1 / NTMzNTQ=uuDQuD2mJt9fsCf / scenecut=40 / rc-lookahead=60 / lookahead-slices=4 / bframes=8 / bframe-bias=0 / b-adapt=2 / ref=5 / limit-refs=3 / limit-modes / weightp / weightb / aq-mode=1 / qg-size=16 / aq-strength=1.00 / cbqpoffs=0 / crqpoffs=0 / rd=4 / psy-rd=0.30 / rdoq-level=1 / psy-rdoq=5.00 / no-rd-refine / signhide / deblock=-1:-1 / no-sao / no-sao-non-deblock / b-pyramid / no-cutree / no-intra-refresh / rc=crf / crf=20.0 / qcomp=0.60 / qpmin=0 / qpmax=51 / qpstep=4 / ipratio=1.40 / pbratio=1.30

  33. Default : Yes

  34. Forced : No

  35. Color range : Limited

  36. Color primaries : BT.709

  37. Audio #1

  38. ID : 2

  39. Format : AC-3

  40. Format/Info : Audio Coding 3

  41. Commercial name : Dolby Digital

  42. Codec ID : A_AC3

  43. Duration : 2 h 9 min

  44. Bit rate mode : Constant

  45. Bit rate : 640 kb/s

  46. Channel(s) : 6 channels

  47. Channel layout : L R C LFE Ls Rs

  48. Sampling rate : 48.0 kHz

  49. Frame rate : 31.250 FPS (1536 SPF)

  50. Compression mode : Lossy

  51. Stream size : 593 MiB (12%)

  52. Language : English

  53. Service kind : Complete Main

  54. Default : Yes

  55. Forced : No

  56. Audio #2

  57. ID : 3

  58. Format : AC-3

  59. Format/Info : Audio Coding 3

  60. Commercial name : Dolby Digital

  61. Codec ID : A_AC3

  62. Duration : 2 h 9 min

  63. Bit rate mode : Constant

  64. Bit rate : 448 kb/s

  65. Channel(s) : 6 channels

  66. Channel layout : L R C LFE Ls Rs

  67. Sampling rate : 48.0 kHz

  68. Frame rate : 31.250 FPS (1536 SPF)

  69. Compression mode : Lossy

  70. Delay relative to video : 2 s 340 ms

  71. Stream size : 415 MiB (8%)

  72. Language : Chinese

  73. Service kind : Complete Main

  74. Default : No

  75. Forced : No

  76. Audio #3

  77. ID : 4

  78. Format : AC-3

  79. Format/Info : Audio Coding 3

  80. Commercial name : Dolby Digital

  81. Codec ID : A_AC3

  82. Duration : 2 h 6 min

  83. Bit rate mode : Constant

  84. Bit rate : 192 kb/s

  85. Channel(s) : 2 channels

  86. Channel layout : L R

  87. Sampling rate : 48.0 kHz

  88. Frame rate : 31.250 FPS (1536 SPF)

  89. Compression mode : Lossy

  90. Delay relative to video : 2 s 340 ms

  91. Stream size : 174 MiB (4%)

  92. Language : Chinese

  93. Service kind : Complete Main

  94. Default : No

  95. Forced : No

  96. Text #1

  97. ID : 5

  98. Format : PGS

  99. Muxing mode : zlib

  100. Codec ID : S_HDMV/PGS

  101. Codec ID/Info : Picture based subtitle format used on BDs/HD-DVDs

  102. Duration : 2 h 7 min

  103. Bit rate : 10.2 kb/s

  104. Count of elements : 3036

  105. Stream size : 9.31 MiB (0%)

  106. Language : English

  107. Default : Yes

  108. Forced : No

  109. Text #2

  110. ID : 6

  111. Format : PGS

  112. Muxing mode : zlib

  113. Codec ID : S_HDMV/PGS

  114. Codec ID/Info : Picture based subtitle format used on BDs/HD-DVDs

  115. Duration : 2 h 8 min

  116. Bit rate : 12.3 kb/s

  117. Count of elements : 2974

  118. Stream size : 11.3 MiB (0%)

  119. Language : Chinese

  120. Default : No

  121. Forced : No

  122. Text #3

  123. ID : 7

  124. Format : PGS

  125. Muxing mode : zlib

  126. Codec ID : S_HDMV/PGS

  127. Codec ID/Info : Picture based subtitle format used on BDs/HD-DVDs

  128. Duration : 2 h 8 min

  129. Bit rate : 12.7 kb/s

  130. Count of elements : 2974

  131. Stream size : 11.7 MiB (0%)

  132. Language : Chinese

  133. Default : No

  134. Forced : No

  135. Menu

  136. 00:00:00.000 : en:Chapter 01

  137. 00:02:19.472 : en:Chapter 02

  138. 00:06:19.379 : en:Chapter 03

  139. 00:11:24.725 : en:Chapter 04

  140. 00:14:20.109 : en:Chapter 05

  141. 00:19:01.140 : en:Chapter 06

  142. 00:22:30.140 : en:Chapter 07

  143. 00:26:39.431 : en:Chapter 08

  144. 00:30:50.348 : en:Chapter 09

  145. 00:34:01.039 : en:Chapter 10

  146. 00:37:46.931 : en:Chapter 11

  147. 00:43:03.998 : en:Chapter 12

  148. 00:46:11.643 : en:Chapter 13

  149. 00:50:23.145 : en:Chapter 14

  150. 00:53:31.124 : en:Chapter 15

  151. 00:57:44.878 : en:Chapter 16

  152. 01:02:05.638 : en:Chapter 17

  153. 01:07:11.027 : en:Chapter 18

  154. 01:10:35.773 : en:Chapter 19

  155. 01:15:53.465 : en:Chapter 20

  156. 01:21:24.921 : en:Chapter 21

  157. 01:25:20.323 : en:Chapter 22

  158. 01:30:19.330 : en:Chapter 23

  159. 01:35:58.210 : en:Chapter 24

  160. 01:41:32.127 : en:Chapter 25

  161. 01:45:42.878 : en:Chapter 26

  162. 01:48:37.969 : en:Chapter 27

  163. 01:53:52.700 : en:Chapter 28

  164. 01:55:59.035 : en:Chapter 29

  165. 01:59:11.727 : en:Chapter 30

  166. 02:02:06.777 : en:Chapter 31

  167. 02:05:40.950 : en:Chapter 32


复制代码



文件下载


除非特别注明,本文『末路狂花[国英多音轨/中英字幕].Thelma.and.Louise.1991.BluRay.1080p.x265.10bit.3Audio-MiniHD 4.83GB』来源于互联网机器人自动抓取,非本站原创。 浮游电影网不对本文拥有版权,如有侵犯,请联系邮箱:fuyouu#yandex.com[#换成@]投诉。我们会在15个工作日内删除。 但烦请转载时请标明出处:“本文转载于『浮游电影网』,原文地址:https://www.fuyouu.com/22092.html

评论吧骚年!

发表你的见解   

昵称*

E-mail*(建议输入,以便收到博主回复的提示邮件)

验证码*

您可以使用eMule或eMule Mod(Windows)、aMule(Win、Linux、Mac)等软件下载eD2k链接。。
eMule收藏集(.emulecollection)文件是您选中的所有链接的列表文件。eMule可以直接下载它们。
按住SHIFT键选择可以选中多个选择框。
可用文件名和大小选择器来选择文件。
文件名选择器帮您根据文件名称或后缀来选择文件。不分大小写。
符号使用:
和:空格( )、+
不包含:-
或:|
转义:一对英文引号("");
匹配开头:^
匹配结尾:$
例如:
选中所有名称中包含有“eMule”或“0.49c”字眼,但不包含有“exe”字眼的:emule|0.49c -exe
选中所有名称的开头是“eMule”,结尾是“0.49c”的:^emule 0.49c$
选中所有名称中带有“eMule 0.49c”的(必须是“eMule 0.49c”,中间没有别的字符,不能是“eMule fake 0.49c”),需要转义:"emule 0.49c"
大小选择器帮您根据文件大小选择文件。