当前位置: 首页 >> 欧美电影 >> 奥林匹斯的陷落[国英多音轨/中英特效字幕].Olympus.Has.Fallen.2013.BluRay.2160p.x265.10bit.HDR.2Audio-MiniHD 19.16GB >> 正文

奥林匹斯的陷落[国英多音轨/中英特效字幕].Olympus.Has.Fallen.2013.BluRay.2160p.x265.10bit.HDR.2Audio-MiniHD 19.16GB

2022年05月12日 22:57:21     电影发布:来源于网络     电影分类:欧美电影     评论(0)    

◎译 名 奥林匹斯的陷落 / 白宫沦陷(港) / 全面攻占:倒数救援(台) / 奥林匹斯陷落 / 白宫陷落 / End of White House

◎片 名 Olympus Has Fallen

◎年 代 2013

◎产 地 美国

◎类 别 动作 / 犯罪

◎语 言 英语 / 韩语

◎上映日期 2013-12-29(中国大陆) / 2013-03-22(美国)

◎IMDb链接 https://www.imdb.com/title/tt2302755/

◎豆瓣评分 6.5/10 (69843人评价)

◎豆瓣链接 https://movie.douban.com/subject/10743974/

◎片 长 114分钟(中国大陆)

◎导 演 安东尼·福奎阿 Antoine Fuqua (id:1013907)

◎编 剧 克赖顿·罗森博格 Creighton Rothenberger (id:1327535)

凯特琳·贝内迪克特 Katrin Benedikt (id:1327536)

◎演 员 杰拉德·巴特勒 Gerard Butler (id:1040500)

艾伦·艾克哈特 Aaron Eckhart (id:1053577)

芬利·雅克布森 Finley Jacobsen (id:1332851)

迪伦·麦克德莫特 Dylan McDermott (id:1040567)

尹成植 Rick Yune (id:1022705)

摩根·弗里曼 Morgan Freeman (id:1054534)

安吉拉·贝塞特 Angela Bassett (id:1025214)

梅丽莎·里奥 Melissa Leo (id:1049558)

拉达·米切尔 Radha Mitchell (id:1041109)

科尔·豪瑟 Cole Hauser (id:1000106)

艾什莉·贾德 Ashley Judd (id:1000014)

弗莱迪·博什 Freddy Bosche (id:1336513)

凯文·穆 Kevin Moon (id:1336514)

山姆麦地那 Sam Medina (id:1336516)

乔凡尼·席尔瓦 Giovanni Silva (id:1342709)

赵雅顿 Arden Cho (id:1351674)

马拉纳·李 Malana Lea (id:1332154)

泰伦·伍德利 Tyron Woodley (id:1360638)

伊恩·卡塞尔伯里 Ian Casselberry (id:1387744)

莎娜·福斯塔尔 Shanna Forrestall (id:1413013)

菲尔·奥斯汀 Phil Austin (id:1336512)

詹姆斯·英格索尔 James Ingersoll (id:1336511)

罗伯特·福斯特 Robert Forster (id:1055150)

Lance Broadway Lance Broadway (id:1332440)

安东尼·福奎阿 Antoine Fuqua (id:1013907)

◎简 介

白宫,特情局秘密代号为“奥林匹斯”,目前正处在危机之中,一伙恐怖分子先用重型的飞机和机枪袭击了这里,随后便派入了一群敢死队进入,他们彻底占领了美国总统府,劫持了美国总统,并以此为要挟,妄图控制世界格局。

坐在文员办公室的迈克·班宁(杰拉德·巴特勒 Gerard Butler 饰)从这次袭击中活了下来。班宁原先是一个特种兵,负责第一夫人和美国总统(艾伦·艾克哈特 Aaron Eckhart 饰)的安危。但是在一个圣诞节的例行任务中,他的工作出了错,造成了第一夫人的死亡。后来,班宁就被调整到了文职工作上。

临时政府迅速派遣美国突击队登陆白宫,企图营救总统,却被恐怖分子控制的白宫防御系统击退,营救计划几度失败。眼看恐怖分子的阴谋即将得逞。因为意外,班宁活了下来,他与临时政府取得联系,并孤身一人营救总统,班宁成为了整个美国的最后一丝希望。这位前特工依靠自己过...

◎获奖情况 (共1项)

第12届华盛顿影评人协会奖 (2013)

华盛顿特区最佳写照(提名)

  1. ##### MediaInfo ######

  2. General

  3. Unique ID : 274119257003413871435043734444969061028 (0xCE3972D37DD8B52556E694C08F206AA4)

  4. Complete name : Olympus.Has.Fallen.2013.BluRay.2160p.x265.10bit.HDR.2Audio-MiniHD.mkv

  5. Format : Matroska

  6. Format version : Version 4

  7. File size : 19.2 GiB

  8. Duration : 1 h 59 min

  9. Overall bit rate mode : Variable

  10. Overall bit rate : 22.9 Mb/s

  11. Encoded date : UTC 2021-02-08 07:45:57

  12. Writing application : mkvmerge v53.0.0 ('Fool's Gold') 64-bit

  13. Writing library : libebml v1.4.1 + libmatroska v1.6.2

  14. Video

  15. ID : 1

  16. Format : HEVC

  17. Format/Info : High Efficiency Video Coding

  18. Format profile : Main [email protected]@High

  19. HDR format : SMPTE ST 2086, HDR10 compatible

  20. Codec ID : V_MPEGH/ISO/HEVC

  21. Duration : 1 h 59 min

  22. Bit rate : 15.1 Mb/s

  23. Width : 3 840 pixels

  24. Height : 1 608 pixels

  25. Display aspect ratio : 2.40:1

  26. Frame rate mode : Constant

  27. Frame rate : 24.000 FPS

  28. Color space : YUV

  29. Chroma subsampling : 4:2:0

  30. Bit depth : 10 bits

  31. Bits/(Pixel*Frame) : 0.102

  32. Stream size : 12.6 GiB (66%)

  33. Writing library : x265 3.3+3-g8f8e332f1+29:[Windows][#Erg`Djh#][@Yuuki] made by @Dongfangbubai

  34. Encoding settings : rc=crf / crf=18.0000 / qcomp=0.70 / qpstep=4 / stats-write=0 / stats-read=0 / vbv-maxrate=160000 / vbv-bufsize=160000 / vbv-init=0.9 / crf-max=0.0 / crf-min=0.0 / no-lossless / no-cu-lossless / aq-mode=3 / aq-strength=0.80 / cbqpoffs=-3 / crqpoffs=-3 / ipratio=1.40 / pbratio=1.30 / psy-rd=2.00 / psy-rdoq=3.00 / deblock=-1:-1 / ref=5 / limit-refs=0 / no-limit-modes / bframes=8 / b-adapt=2 / bframe-bias=0 / b-pyramid / b-intra / weightp / weightb / min-keyint=24 / max-keyint=240 / rc-lookahead=60 / gop-lookahead=0 / NTMzNTQ=uuDQuD2mJt9fsCf / scenecut=40 / hist-scenecut=0 / radl=0 / max-cu-size=32 / min-cu-size=8 / me=3 / subme=4 / merange=25 / rdoq-level=2 / rd=4 / rdpenalty=1 / dynamic-rd=0.00 / no-rd-refine / ----- / no-cutree / no-sao / no-rect / no-amp / no-open-gop / wpp / pmode / pme / no-psnr / no-ssim / nr-intra=0 / nr-inter=0 / no-constrained-intra / no-strong-intra-smoothing / max-tu-size=32 / tu-inter-depth=2 / tu-intra-depth=2 / limit-tu=0 / qg-size=32 / qpmax=69 / qpmin=0 / ----- / cpuid=533541176575 / frame-threads=6 / numa-pools=54,- / log-level=2 / input-csp=1 / input-res=3840x1608 / interlace=0 / level-idc=0 / high-tier=1 / uhd-bd=0 / no-allow-non-conformance / no-repeat-headers / no-aud / hrd / info / hash=0 / no-temporal-layers / lookahead-slices=0 / no-splice / no-intra-refresh / no-ssim-rd / signhide / no-tskip / max-merge=3 / temporal-mvp / no-frame-dup / no-hme / no-analyze-src-pics / no-sao-non-deblock / selective-sao=0 / no-early-skip / no-rskip / no-fast-intra / no-tskip-fast / no-splitrd-skip / zone-count=0 / no-strict-cbr / no-rc-grain / no-const-vbv / sar=0 / overscan=0 / videoformat=5 / range=0 / colorprim=9 / transfer=16 / colormatrix=9 / chromaloc=0 / display-window=0 / master-display=G(13250,34500)B(7500,3000)R(34000,16000)WP(15635,16450)L(10000000,1) / cll=891,428 / min-luma=0 / max-luma=1023 / log2-max-poc-lsb=8 / vui-timing-info / vui-hrd-info / slices=1 / no-opt-qp-pps / no-opt-ref-list-length-pps / no-multi-pass-opt-rps / scenecut-bias=0.05 / hist-threshold=0.01 / no-opt-cu-delta-qp / no-aq-motion / hdr10 / hdr10-opt / no-dhdr10-opt / no-idr-recovery-sei / analysis-reuse-level=0 / analysis-save-reuse-level=0 / analysis-load-reuse-level=0 / scale-factor=0 / refine-intra=0 / refine-inter=0 / refine-mv=1 / refine-ctu-distortion=0 / no-limit-sao / ctu-info=0 / no-lowpass-dct / refine-analysis-type=0 / copy-pic=1 / max-ausize-factor=1.0 / no-dynamic-refine / no-single-sei / no-hevc-aq / no-svt / no-field / qp-adaptation-range=1.00 / no-scenecut-aware-qpconformance-window-offsets / right=0 / bottom=0 / NTMzNTQ=

  35. Default : Yes

  36. Forced : No

  37. Color range : Limited

  38. Color primaries : BT.2020

  39. Transfer characteristics : PQ

  40. Matrix coefficients : BT.2020 non-constant

  41. Mastering display color primaries : Display P3

  42. Mastering display luminance : min: 0.0001 cd/m2, max: 1000 cd/m2

  43. Maximum Content Light Level : 891 cd/m2

  44. Maximum Frame-Average Light Level : 428 cd/m2

  45. Audio #1

  46. ID : 2

  47. Format : DTS XLL

  48. Format/Info : Digital Theater Systems

  49. Commercial name : DTS-HD Master Audio

  50. Codec ID : A_DTS

  51. Duration : 1 h 59 min

  52. Bit rate mode : Variable

  53. Bit rate : 3 833 kb/s

  54. Channel(s) : 6 channels

  55. Channel layout : C L R Ls Rs LFE

  56. Sampling rate : 48.0 kHz

  57. Frame rate : 93.750 FPS (512 SPF)

  58. Bit depth : 24 bits

  59. Compression mode : Lossless

  60. Stream size : 3.21 GiB (17%)

  61. Title : 英语

  62. Language : English

  63. Default : Yes

  64. Forced : No

  65. Audio #2

  66. ID : 3

  67. Format : DTS XLL

  68. Format/Info : Digital Theater Systems

  69. Commercial name : DTS-HD Master Audio

  70. Codec ID : A_DTS

  71. Duration : 1 h 59 min

  72. Bit rate mode : Variable

  73. Bit rate : 3 848 kb/s

  74. Channel(s) : 6 channels

  75. Channel layout : C L R Ls Rs LFE

  76. Sampling rate : 48.0 kHz

  77. Frame rate : 93.750 FPS (512 SPF)

  78. Bit depth : 24 bits

  79. Compression mode : Lossless

  80. Delay relative to video : 24 s 21 ms

  81. Stream size : 3.20 GiB (17%)

  82. Title : 八一国语

  83. Language : Chinese

  84. Default : No

  85. Forced : No

  86. Text #1

  87. ID : 4

  88. Format : PGS

  89. Muxing mode : zlib

  90. Codec ID : S_HDMV/PGS

  91. Codec ID/Info : Picture based subtitle format used on BDs/HD-DVDs

  92. Duration : 1 h 48 min

  93. Bit rate : 58.5 kb/s

  94. Count of elements : 1949

  95. Stream size : 45.5 MiB (0%)

  96. Title : 英文

  97. Language : English

  98. Default : Yes

  99. Forced : No

  100. Text #2

  101. ID : 5

  102. Format : PGS

  103. Muxing mode : zlib

  104. Codec ID : S_HDMV/PGS

  105. Codec ID/Info : Picture based subtitle format used on BDs/HD-DVDs

  106. Duration : 1 h 51 min

  107. Bit rate : 118 kb/s

  108. Count of elements : 5936

  109. Stream size : 94.1 MiB (0%)

  110. Title : 国配特效

  111. Language : Chinese

  112. Default : No

  113. Forced : No

  114. Text #3

  115. ID : 6

  116. Format : PGS

  117. Muxing mode : zlib

  118. Codec ID : S_HDMV/PGS

  119. Codec ID/Info : Picture based subtitle format used on BDs/HD-DVDs

  120. Duration : 1 h 51 min

  121. Bit rate : 147 kb/s

  122. Count of elements : 5301

  123. Stream size : 118 MiB (1%)

  124. Title : 双语特效

  125. Language : Chinese

  126. Default : No

  127. Forced : No

  128. Menu

  129. 00:00:00.000 : en:CHAPTER01

  130. 00:09:19.542 : en:CHAPTER02

  131. 00:17:49.750 : en:CHAPTER03

  132. 00:27:52.417 : en:CHAPTER04

  133. 00:38:11.708 : en:CHAPTER05

  134. 00:46:51.833 : en:CHAPTER06

  135. 00:57:37.000 : en:CHAPTER07

  136. 01:07:31.708 : en:CHAPTER08

  137. 01:19:48.875 : en:CHAPTER09

  138. 01:28:46.208 : en:CHAPTER10

  139. 01:38:14.125 : en:CHAPTER11

  140. 01:50:14.625 : en:CHAPTER12


复制代码



文件下载


除非特别注明,本文『奥林匹斯的陷落[国英多音轨/中英特效字幕].Olympus.Has.Fallen.2013.BluRay.2160p.x265.10bit.HDR.2Audio-MiniHD 19.16GB』来源于互联网机器人自动抓取,非本站原创。 浮游电影网不对本文拥有版权,如有侵犯,请联系邮箱:fuyouu#yandex.com[#换成@]投诉。我们会在15个工作日内删除。 但烦请转载时请标明出处:“本文转载于『浮游电影网』,原文地址:https://www.fuyouu.com/22088.html

评论吧骚年!

发表你的见解   

昵称*

E-mail*(建议输入,以便收到博主回复的提示邮件)

验证码*

您可以使用eMule或eMule Mod(Windows)、aMule(Win、Linux、Mac)等软件下载eD2k链接。。
eMule收藏集(.emulecollection)文件是您选中的所有链接的列表文件。eMule可以直接下载它们。
按住SHIFT键选择可以选中多个选择框。
可用文件名和大小选择器来选择文件。
文件名选择器帮您根据文件名称或后缀来选择文件。不分大小写。
符号使用:
和:空格( )、+
不包含:-
或:|
转义:一对英文引号("");
匹配开头:^
匹配结尾:$
例如:
选中所有名称中包含有“eMule”或“0.49c”字眼,但不包含有“exe”字眼的:emule|0.49c -exe
选中所有名称的开头是“eMule”,结尾是“0.49c”的:^emule 0.49c$
选中所有名称中带有“eMule 0.49c”的(必须是“eMule 0.49c”,中间没有别的字符,不能是“eMule fake 0.49c”),需要转义:"emule 0.49c"
大小选择器帮您根据文件大小选择文件。