当前位置: 首页 >> 欧美电影 >> 大黄蜂[简繁英特效字幕].Bumblebee.2018.BluRay.2160p.x265.10bit.HDR.2Audio-MiniHD 25.56GB >> 正文

大黄蜂[简繁英特效字幕].Bumblebee.2018.BluRay.2160p.x265.10bit.HDR.2Audio-MiniHD 25.56GB

2022年05月12日 22:56:30     电影发布:来源于网络     电影分类:欧美电影     评论(0)    

◎译 名 大黄蜂 / 大黄蜂大电影 / 大黄蜂独立电影 / 变形金刚外传:大黄蜂 / 变形金刚外传大黄蜂 / Brighton Falls

◎片 名 Bumblebee

◎年 代 2018

◎产 地 美国 / 中国大陆

◎类 别 动作 / 科幻 / 冒险

◎语 言 英语

◎上映日期 2019-01-04(中国大陆) / 2018-12-21(美国)

◎IMDb链接 https://www.imdb.com/title/tt4701182/

◎豆瓣评分 7.0/10 (358734人评价)

◎豆瓣链接 https://movie.douban.com/subject/26394152/

◎片 长 114分钟

◎导 演 特拉维斯·奈特 Travis Knight (id:1305796)

◎编 剧 克里斯蒂娜·霍德森 Christina Hodson (id:1364682)

阿齐瓦·高斯曼 Akiva Goldsman (id:1009507)

小豪尔赫·兰登伯格 Jorge Lendeborg Jr. (id:1376970)

罗伯特·柯克曼 Robert Kirkman (id:1249805)

肯·诺兰 Ken Nolan (id:1293241)

阿特·马库姆 Art Marcum (id:1306770)

马特·霍洛维 Matt Holloway (id:1286819)

◎演 员 海莉·斯坦菲尔德 Hailee Steinfeld (id:1312964)

小豪尔赫·兰登伯格 Jorge Lendeborg Jr. (id:1376970)

约翰·塞纳 John Cena (id:1044883)

杰森·德鲁克 Jason Drucker (id:1361062)

帕梅拉·阿德龙 Pamela Adlon (id:1143044)

斯蒂芬·施耐德 Stephen Schneider (id:1208831)

里卡多·霍约斯 Ricardo Hoyos (id:1236720)

约翰·奥提兹 John Ortiz (id:1018110)

格林·特鲁曼 Glynn Turman (id:1007099)

兰·卡琉 Len Cariou (id:1027942)

格蕾丝·达斯恩妮 Gracie Dzienny (id:1341549)

弗里德·杜莱尔 Fred Dryer (id:1009514)

蓝尼·雅各布森 Lenny Jacobson (id:1239775)

梅金·普莱斯 Megyn Price (id:1137115)

萨钦·巴特 Sachin Bhatt (id:1394730)

蒂姆·马丁·格里森 Tim Martin Gleason (id:1360890)

安东尼奥·查丽蒂 Antonio D. Charity (id:1073264)

艾德文·霍德吉 Edwin Hodge (id:1004934)

拉斯·斯兰德 Lars Slind (id:1329869)

迪伦·奥布莱恩 Dylan O'Brien (id:1314963)

彼特·库伦 Peter Cullen (id:1025212)

安吉拉·贝塞特 Angela Bassett (id:1025214)

贾斯汀·塞洛克斯 Justin Theroux (id:1025199)

大卫·索博洛夫 David Sobolov (id:1153825)

格蕾·德丽斯勒 Grey DeLisle (id:1086522)

史蒂夫·布卢姆 Steve Blum (id:1064164)

安德鲁·莫尔加多 Andrew Morgado (id:1375868)

威廉·W·巴伯 William W. Barbour (id:1393373)

罗伯特·切斯纳特 Robert Chestnut (id:1078881)

米歇尔·毛 Michelle Mao (id:1394733)

克里斯蒂安·哈切森 Christian Hutcherson (id:1394734)

里克·理查森 Rick Richardson (id:1393387)

瓦内萨·罗斯 Vanessa Ross (id:1330973)

波士顿·拉什·弗里曼 Boston Rush Freeman (id:1394731)

托尼·托斯特 Tony Toste (id:1394729)

迪娜·特鲁迪 Deena Trudy (id:1394732)

艾蒂安·维克 Etienne Vick (id:1373172)

肯尼斯·崔 Kenneth Choi (id:1027505)

玛塞拉·布拉吉奥 Marcella Bragio (id:1393377)

蕾切尔·克劳 Rachel Crow (id:1339562)

艾比·奎因 Abby Quinn (id:1386474)

迈克尔·马西尼 Michael Masini (id:1323535)

盖尔·甘布尔 Gail Gamble (id:1394735)

马丁·肖特 Martin Short (id:1002740)

特里萨·纳瓦罗 Teresa Navarro (id:1349377)

杰斯·哈梅尔 Jess Harnell (id:1016698)

尼娜·奇克 Nina Cheek (id:1393368)

布赖恩·科尔斯迈尔 Brian Korsmeier (id:1430778)

史蒂文·斯皮尔伯格 Steven Spielberg (id:1054440)

迈克尔·贝 Michael Bay (id:1027776)

程武 Wu Cheng (id:1406349)

达里奥·马里安奈利 Dario Marianelli (id:1018392)

迈克尔·奇基 Michael Chickey (id:1454394)

戴恩·艾伦·史密斯 Dane Allan Smith (id:1407639)

亨特·阿什 Hunter Athey (id:1407638)

乔治·安祖利德斯 George Antzoulides (id:1407637)

温·李拉桑塔纳 Win Leerasanthanah (id:1419121)

◎简 介

意图征服一切的霸天虎全员出击,塞伯坦即将陨落,B-127(迪伦·奥布莱恩 Dylan O'Brien 配音)临危受命前往地球。在1987年的加州,B-127不仅遭到特工伯恩斯(约翰·塞纳 John Cena 饰演)的追捕,更被闪电(大卫·索博洛夫 David Sobolov 配音)殴至重伤,语言模块和记忆模块严重受损。B-127变形为大众甲壳虫,被失去了父亲(蒂姆·马丁·格利森 Tim Martin Gleason 饰演)的查莉·沃森(海莉·斯坦菲尔德 Hailee Steinfeld 饰演)发现并开回家。查莉为B-127取名大黄蜂,双方成为亲密无间的好朋友。然而好景不长,反射弹(贾斯汀·塞洛克斯 Justin Theroux 配音)与粉碎(安吉拉·贝塞特 Angela Bassett 配音)追至地球,利用美国军方的卫星网络追踪到大黄蜂,并企图将霸天...

◎获奖情况 (共1项)

第6届豆瓣电影年度榜单 (2019)

评分最高的科幻/动作片(提名)

  1. ##### MediaInfo ######

  2. General

  3. Unique ID : 55360389174735974484152016111688910465 (0x29A605EB7BFC1B09BF92E370CE2A8681)

  4. Complete name : Bumblebee.2018.BluRay.2160p.x265.10bit.HDR.2Audio-MiniHD.mkv

  5. Format : Matroska

  6. Format version : Version 4

  7. File size : 25.6 GiB

  8. Duration : 1 h 53 min

  9. Overall bit rate mode : Variable

  10. Overall bit rate : 32.1 Mb/s

  11. Encoded date : UTC 2019-03-29 11:53:27

  12. Writing application : mkvmerge v27.0.0 ('Metropolis') 64-bit

  13. Writing library : libebml v1.3.6 + libmatroska v1.4.9

  14. Cover : Yes

  15. Attachments : cover.jpg

  16. Video

  17. ID : 1

  18. Format : HEVC

  19. Format/Info : High Efficiency Video Coding

  20. Format profile : Main [email protected]@High

  21. HDR format : SMPTE ST 2086, HDR10 compatible

  22. Codec ID : V_MPEGH/ISO/HEVC

  23. Duration : 1 h 53 min

  24. Bit rate : 26.5 Mb/s

  25. Width : 3 840 pixels

  26. Height : 2 160 pixels

  27. Display aspect ratio : 16:9

  28. Frame rate mode : Constant

  29. Frame rate : 23.976 (24000/1001/53354) FPS

  30. Color space : YUV

  31. Chroma subsampling : 4:2:0

  32. Bit depth : 10 bits

  33. Bits/(Pixel*Frame) : 0.133

  34. Stream size : 21.1 GiB (83%)

  35. Title : mUHD-FRDS

  36. Writing library : x265 3.0+2-ge71f790de+23:[Windows][GCC 8.2.1][64 bit] Yuuki 10bit

  37. Encoding settings : rc=crf / crf=19.0000 / qcomp=0.70 / qpstep=4 / stats-write=0 / stats-read=0 / vbv-maxrate=160000 / vbv-bufsize=160000 / vbv-init=0.9 / crf-max=0.0 / crf-min=0.0 / no-lossless / no-cu-lossless / aq-mode=3 / aq-strength=0.90 / cbqpoffs=-3 / crqpoffs=-3 / ipratio=1.40 / pbratio=1.30 / psy-rd=2.00 / psy-rdoq=5.00 / deblock=-1:-1 / ref=5 / limit-refs=2 / limit-modes / bframes=9 / b-adapt=2 / bframe-bias=0 / b-pyramid / b-intra / weightp / weightb / min-keyint=23 / max-keyint=300 / rc-lookahead=40 / gop-lookahead=0 / NTMzNTQ=uuDQuD2mJt9fsCf / scenecut=40 / radl=0 / max-cu-size=32 / min-cu-size=8 / me=3 / subme=4 / merange=25 / rdoq-level=2 / rd=4 / rdpenalty=1 / dynamic-rd=0.00 / no-rd-refine / ----- / cutree / no-sao / no-rect / no-amp / no-open-gop / wpp / no-pmode / no-pme / no-psnr / no-ssim / nr-intra=0 / nr-inter=0 / no-constrained-intra / no-strong-intra-smoothing / max-tu-size=32 / tu-inter-depth=2 / tu-intra-depth=2 / limit-tu=4 / qg-size=32 / qpmax=69 / qpmin=0 / ----- / cpuid=533541111039 / frame-threads=6 / numa-pools=84,- / log-level=2 / input-csp=1 / input-res=3840x2160 / interlace=0 / level-idc=0 / high-tier=1 / uhd-bd=0 / no-allow-non-conformance / no-repeat-headers / no-aud / hrd / info / hash=0 / no-temporal-layers / lookahead-slices=0 / no-splice / no-intra-refresh / no-ssim-rd / signhide / no-tskip / max-merge=3 / temporal-mvp / no-analyze-src-pics / no-sao-non-deblock / no-early-skip / no-rskip / no-fast-intra / no-tskip-fast / no-splitrd-skip / zone-count=0 / no-strict-cbr / no-rc-grain / no-const-vbv / sar=0 / overscan=0 / videoformat=5 / range=0 / colorprim=9 / transfer=16 / colormatrix=9 / chromaloc=0 / display-window=0 / master-display=G(13250,34500)B(7500,3000)R(34000,16000)WP(15635,16450)L(10000000,1) / max-cll=0,0 / min-luma=0 / max-luma=1023 / log2-max-poc-lsb=8 / vui-timing-info / vui-hrd-info / slices=1 / no-opt-qp-pps / no-opt-ref-list-length-pps / no-multi-pass-opt-rps / scenecut-bias=0.05 / no-opt-cu-delta-qp / no-aq-motion / hdr / hdr-opt / no-dhdr10-opt / no-idr-recovery-sei / analysis-reuse-level=5 / scale-factor=0 / refine-intra=0 / refine-inter=0 / refine-mv=0 / refine-ctu-distortion=0 / no-limit-sao / ctu-info=0 / no-lowpass-dct / refine-analysis-type=0 / copy-pic=1 / max-ausize-factor=1.0 / no-dynamic-refine / no-single-sei / no-hevc-aq / qp-adaptation-range=1.00

  38. Default : Yes

  39. Forced : No

  40. Color range : Limited

  41. Color primaries : BT.2020

  42. Transfer characteristics : PQ

  43. Matrix coefficients : BT.2020 non-constant

  44. Mastering display color primaries : Display P3

  45. Mastering display luminance : min: 0.0001 cd/m2, max: 1000 cd/m2

  46. Audio #1

  47. ID : 2

  48. Format : MLP FBA 16-ch

  49. Format/Info : Meridian Lossless Packing FBA with 16-channel presentation

  50. Commercial name : Dolby TrueHD with Dolby Atmos

  51. Codec ID : A_TRUEHD

  52. Duration : 1 h 53 min

  53. Bit rate mode : Variable

  54. Bit rate : 4 736 kb/s

  55. Maximum bit rate : 7 761 kb/s

  56. Channel(s) : 8 channels

  57. Channel layout : L R C LFE Ls Rs Lb Rb

  58. Sampling rate : 48.0 kHz

  59. Frame rate : 1 200.000 FPS (40 SPF)

  60. Compression mode : Lossless

  61. Stream size : 3.77 GiB (15%)

  62. Title : Atmos 7.1 / 4736 kbps

  63. Language : English

  64. Default : Yes

  65. Forced : No

  66. Number of dynamic objects : 11

  67. Bed channel count : 1 channel

  68. Bed channel configuration : LFE

  69. Audio #2

  70. ID : 3

  71. Format : AC-3

  72. Format/Info : Audio Coding 3

  73. Commercial name : Dolby Digital

  74. Codec ID : A_AC3

  75. Duration : 1 h 53 min

  76. Bit rate mode : Constant

  77. Bit rate : 640 kb/s

  78. Channel(s) : 6 channels

  79. Channel layout : L R C LFE Ls Rs

  80. Sampling rate : 48.0 kHz

  81. Frame rate : 31.250 FPS (1536 SPF)

  82. Compression mode : Lossy

  83. Stream size : 521 MiB (2%)

  84. Title : Ac3 5.1 / 640 kbps

  85. Language : English

  86. Service kind : Complete Main

  87. Default : No

  88. Forced : No

  89. Text #1

  90. ID : 4

  91. Format : PGS

  92. Muxing mode : zlib

  93. Codec ID : S_HDMV/PGS

  94. Codec ID/Info : Picture based subtitle format used on BDs/HD-DVDs

  95. Duration : 1 h 48 min

  96. Bit rate : 26.6 kb/s

  97. Count of elements : 2444

  98. Stream size : 20.6 MiB (0%)

  99. Language : English

  100. Default : No

  101. Forced : No

  102. Text #2

  103. ID : 5

  104. Format : PGS

  105. Muxing mode : zlib

  106. Codec ID : S_HDMV/PGS

  107. Codec ID/Info : Picture based subtitle format used on BDs/HD-DVDs

  108. Duration : 1 h 53 min

  109. Bit rate : 19.6 kb/s

  110. Count of elements : 2322

  111. Stream size : 15.8 MiB (0%)

  112. Title : 原盘粤语

  113. Language : Chinese

  114. Default : No

  115. Forced : No

  116. Text #3

  117. ID : 6

  118. Format : PGS

  119. Muxing mode : zlib

  120. Codec ID : S_HDMV/PGS

  121. Codec ID/Info : Picture based subtitle format used on BDs/HD-DVDs

  122. Duration : 1 h 53 min

  123. Bit rate : 18.6 kb/s

  124. Count of elements : 2334

  125. Stream size : 15.0 MiB (0%)

  126. Title : 原盘繁体

  127. Language : Chinese

  128. Default : No

  129. Forced : No

  130. Text #4

  131. ID : 7

  132. Format : PGS

  133. Muxing mode : zlib

  134. Codec ID : S_HDMV/PGS

  135. Codec ID/Info : Picture based subtitle format used on BDs/HD-DVDs

  136. Duration : 1 h 52 min

  137. Bit rate : 100 kb/s

  138. Count of elements : 4348

  139. Stream size : 80.8 MiB (0%)

  140. Title : 简中特效

  141. Language : Chinese

  142. Default : No

  143. Forced : No

  144. Text #5

  145. ID : 8

  146. Format : PGS

  147. Muxing mode : zlib

  148. Codec ID : S_HDMV/PGS

  149. Codec ID/Info : Picture based subtitle format used on BDs/HD-DVDs

  150. Duration : 1 h 51 min

  151. Bit rate : 124 kb/s

  152. Count of elements : 4348

  153. Stream size : 99.4 MiB (0%)

  154. Title : 简英双语特效

  155. Language : Chinese

  156. Default : Yes

  157. Forced : No



文件下载


除非特别注明,本文『大黄蜂[简繁英特效字幕].Bumblebee.2018.BluRay.2160p.x265.10bit.HDR.2Audio-MiniHD 25.56GB』来源于互联网机器人自动抓取,非本站原创。 浮游电影网不对本文拥有版权,如有侵犯,请联系邮箱:fuyouu#yandex.com[#换成@]投诉。我们会在15个工作日内删除。 但烦请转载时请标明出处:“本文转载于『浮游电影网』,原文地址:https://www.fuyouu.com/22087.html

评论吧骚年!

发表你的见解   

昵称*

E-mail*(建议输入,以便收到博主回复的提示邮件)

验证码*

您可以使用eMule或eMule Mod(Windows)、aMule(Win、Linux、Mac)等软件下载eD2k链接。。
eMule收藏集(.emulecollection)文件是您选中的所有链接的列表文件。eMule可以直接下载它们。
按住SHIFT键选择可以选中多个选择框。
可用文件名和大小选择器来选择文件。
文件名选择器帮您根据文件名称或后缀来选择文件。不分大小写。
符号使用:
和:空格( )、+
不包含:-
或:|
转义:一对英文引号("");
匹配开头:^
匹配结尾:$
例如:
选中所有名称中包含有“eMule”或“0.49c”字眼,但不包含有“exe”字眼的:emule|0.49c -exe
选中所有名称的开头是“eMule”,结尾是“0.49c”的:^emule 0.49c$
选中所有名称中带有“eMule 0.49c”的(必须是“eMule 0.49c”,中间没有别的字符,不能是“eMule fake 0.49c”),需要转义:"emule 0.49c"
大小选择器帮您根据文件大小选择文件。