当前位置: 首页 >> 欧美电影 >> 大鳄鱼[杜比视界版本][简繁英字幕].Alligator.1980.UHD.BluRay.2160p.x265.10bit.DoVi-MiniHD 19.64GB >> 正文

大鳄鱼[杜比视界版本][简繁英字幕].Alligator.1980.UHD.BluRay.2160p.x265.10bit.DoVi-MiniHD 19.64GB

2022年05月12日 22:55:34     电影发布:来源于网络     电影分类:欧美电影     评论(0)    

◎译 名 大鳄鱼

◎片 名 Alligator

◎年 代 1980

◎产 地 美国

◎类 别 科幻 / 惊悚 / 恐怖

◎语 言 英语

◎上映日期 1980-07-02

◎IMDb链接 https://www.imdb.com/title/tt0080354/

◎豆瓣评分 6.0/10 (175人评价)

◎豆瓣链接 https://movie.douban.com/subject/1294949/

◎片 长 91 分钟

◎导 演 刘易斯·蒂格 Lewis Teague (id:1032563)

◎编 剧 约翰·塞尔斯 John Sayles (id:1027929)

◎演 员 罗伯特·福斯特 Robert Forster (id:1055150)

John F. Goff John F. Goff (id:1277938)

肯达尔·卡莉·布朗 Kendall Carly Browne (id:1455440)

Sue Dolph Sue Dolph (id:1282544)

罗伯特·肖特 Robert Short (id:1297515)

◎简 介

A vicious alligator named Ramon, who was flushed into the city sewer as a baby, survives to become a 32-foot-long menace who devours animals and people alike. Ramon's so huge because of the steady diet of dead pets - treated with growth hormones - that he's fed on for 12 years. Now the tremendous brute is angry and looking for revenge. Only detective David Madison knows of Ramo...

  1. ##### MediaInfo ######

  2. General

  3. Unique ID : 329953048624852124960201958656405665551 (0xF83AA549E5EC1B3F1D8D58E6D6DFF70F)

  4. Complete name : Alligator.1980.UHD.BluRay.2160p.x265.10bit.DoVi-MiniHD.mkv

  5. Format : Matroska

  6. Format version : Version 4

  7. File size : 19.6 GiB

  8. Duration : 1 h 30 min

  9. Overall bit rate mode : Variable

  10. Overall bit rate : 31.0 Mb/s

  11. Encoded date : UTC 2022-03-01 09:51:33

  12. Writing application : mkvmerge v62.0.0 ('Apollo') 64-bit

  13. Writing library : libebml v1.4.2 + libmatroska v1.6.4

  14. Video

  15. ID : 1

  16. Format : HEVC

  17. Format/Info : High Efficiency Video Coding

  18. Format profile : Main [email protected]@High

  19. HDR format : SMPTE ST 2086, HDR10 compatible

  20. Codec ID : V_MPEGH/ISO/HEVC

  21. Duration : 1 h 30 min

  22. Bit rate : 29.0 Mb/s

  23. Width : 3 840 pixels

  24. Height : 1 608 pixels

  25. Display aspect ratio : 2.40:1

  26. Frame rate mode : Constant

  27. Frame rate : 24.000 FPS

  28. Color space : YUV

  29. Chroma subsampling : 4:2:0

  30. Bit depth : 10 bits

  31. Bits/(Pixel*Frame) : 0.196

  32. Stream size : 18.4 GiB (94%)

  33. Writing library : x265 3.3+3-g8f8e332f1+29:[Windows][#Erg`Djh#][@Yuuki] made by @Dongfangbubai

  34. Encoding settings : rc=crf / crf=20.0000 / qcomp=0.70 / qpstep=4 / stats-write=0 / stats-read=0 / vbv-maxrate=160000 / vbv-bufsize=160000 / vbv-init=0.9 / crf-max=0.0 / crf-min=0.0 / no-lossless / no-cu-lossless / aq-mode=3 / aq-strength=0.80 / cbqpoffs=-3 / crqpoffs=-3 / ipratio=1.40 / pbratio=1.30 / psy-rd=2.00 / psy-rdoq=3.00 / deblock=-1:-1 / ref=5 / limit-refs=0 / no-limit-modes / bframes=8 / b-adapt=2 / bframe-bias=0 / b-pyramid / b-intra / weightp / weightb / min-keyint=24 / max-keyint=240 / rc-lookahead=60 / gop-lookahead=0 / NTMzNTQ=uuDQuD2mJt9fsCf / scenecut=40 / hist-scenecut=0 / radl=0 / max-cu-size=32 / min-cu-size=8 / me=3 / subme=4 / merange=25 / rdoq-level=2 / rd=4 / rdpenalty=1 / dynamic-rd=0.00 / no-rd-refine / ----- / no-cutree / no-sao / no-rect / no-amp / no-open-gop / wpp / pmode / pme / no-psnr / no-ssim / nr-intra=0 / nr-inter=0 / no-constrained-intra / no-strong-intra-smoothing / max-tu-size=32 / tu-inter-depth=2 / tu-intra-depth=2 / limit-tu=0 / qg-size=32 / qpmax=69 / qpmin=0 / ----- / cpuid=533541176575 / frame-threads=6 / numa-pools=54,- / log-level=2 / input-csp=1 / input-res=3840x1608 / interlace=0 / level-idc=0 / high-tier=1 / uhd-bd=0 / no-allow-non-conformance / repeat-headers / aud / hrd / info / hash=0 / no-temporal-layers / lookahead-slices=0 / no-splice / no-intra-refresh / no-ssim-rd / signhide / no-tskip / max-merge=3 / temporal-mvp / no-frame-dup / no-hme / no-analyze-src-pics / no-sao-non-deblock / selective-sao=0 / no-early-skip / no-rskip / no-fast-intra / no-tskip-fast / no-splitrd-skip / zone-count=0 / no-strict-cbr / no-rc-grain / no-const-vbv / sar=0 / overscan=0 / videoformat=5 / range=0 / colorprim=9 / transfer=16 / colormatrix=9 / chromaloc=0 / display-window=0 / master-display=G(13250,34500)B(7500,3000)R(34000,16000)WP(15635,16450)L(10000000,1) / cll=10000,732 / min-luma=0 / max-luma=1023 / log2-max-poc-lsb=8 / vui-timing-info / vui-hrd-info / slices=1 / no-opt-qp-pps / no-opt-ref-list-length-pps / no-multi-pass-opt-rps / scenecut-bias=0.05 / hist-threshold=0.01 / no-opt-cu-delta-qp / no-aq-motion / hdr10 / hdr10-opt / no-dhdr10-opt / no-idr-recovery-sei / analysis-reuse-level=0 / analysis-save-reuse-level=0 / analysis-load-reuse-level=0 / scale-factor=0 / refine-intra=0 / refine-inter=0 / refine-mv=1 / refine-ctu-distortion=0 / no-limit-sao / ctu-info=0 / no-lowpass-dct / refine-analysis-type=0 / copy-pic=1 / max-ausize-factor=1.0 / no-dynamic-refine / no-single-sei / no-hevc-aq / no-svt / no-field / qp-adaptation-range=1.00 / no-scenecut-aware-qpconformance-window-offsets / right=0 / bottom=0 / NTMzNTQ=

  35. Default : Yes

  36. Forced : No

  37. Color range : Limited

  38. Color primaries : BT.2020

  39. Transfer characteristics : PQ

  40. Matrix coefficients : BT.2020 non-constant

  41. Mastering display color primaries : Display P3

  42. Mastering display luminance : min: 0.0001 cd/m2, max: 1000 cd/m2

  43. Maximum Content Light Level : 10000 cd/m2

  44. Maximum Frame-Average Light Level : 732 cd/m2

  45. Audio

  46. ID : 2

  47. Format : DTS XLL

  48. Format/Info : Digital Theater Systems

  49. Commercial name : DTS-HD Master Audio

  50. Codec ID : A_DTS

  51. Duration : 1 h 30 min

  52. Bit rate mode : Variable

  53. Bit rate : 1 868 kb/s

  54. Channel(s) : 2 channels

  55. Channel layout : L R

  56. Sampling rate : 48.0 kHz

  57. Frame rate : 93.750 FPS (512 SPF)

  58. Bit depth : 24 bits

  59. Compression mode : Lossless

  60. Stream size : 1.19 GiB (6%)

  61. Title : 英语

  62. Language : English

  63. Default : Yes

  64. Forced : No

  65. Text #1

  66. ID : 3

  67. Format : PGS

  68. Muxing mode : zlib

  69. Codec ID : S_HDMV/PGS

  70. Codec ID/Info : Picture based subtitle format used on BDs/HD-DVDs

  71. Duration : 1 h 27 min

  72. Bit rate : 24.9 kb/s

  73. Count of elements : 2477

  74. Stream size : 15.7 MiB (0%)

  75. Title : 简中

  76. Language : Chinese

  77. Default : Yes

  78. Forced : No

  79. Text #2

  80. ID : 4

  81. Format : PGS

  82. Muxing mode : zlib

  83. Codec ID : S_HDMV/PGS

  84. Codec ID/Info : Picture based subtitle format used on BDs/HD-DVDs

  85. Duration : 1 h 27 min

  86. Bit rate : 25.4 kb/s

  87. Count of elements : 2477

  88. Stream size : 16.0 MiB (0%)

  89. Title : 繁中

  90. Language : Chinese

  91. Default : No

  92. Forced : No

  93. Text #3

  94. ID : 5

  95. Format : PGS

  96. Muxing mode : zlib

  97. Codec ID : S_HDMV/PGS

  98. Codec ID/Info : Picture based subtitle format used on BDs/HD-DVDs

  99. Duration : 1 h 29 min

  100. Bit rate : 42.3 kb/s

  101. Count of elements : 2904

  102. Stream size : 26.9 MiB (0%)

  103. Title : 英文

  104. Language : English

  105. Default : No

  106. Forced : No

  107. Menu

  108. 00:00:00.000 : en:第 01 章

  109. 00:06:20.588 : en:第 02 章

  110. 00:13:17.004 : en:第 03 章

  111. 00:22:00.027 : en:第 04 章

  112. 00:30:02.342 : en:第 05 章

  113. 00:37:01.594 : en:第 06 章

  114. 00:43:31.984 : en:第 07 章

  115. 00:51:13.612 : en:第 08 章

  116. 01:00:06.603 : en:第 09 章

  117. 01:07:50.483 : en:第 10 章

  118. 01:18:07.057 : en:第 11 章

  119. 01:25:28.665 : en:第 12 章


复制代码



文件下载


除非特别注明,本文『大鳄鱼[杜比视界版本][简繁英字幕].Alligator.1980.UHD.BluRay.2160p.x265.10bit.DoVi-MiniHD 19.64GB』来源于互联网机器人自动抓取,非本站原创。 浮游电影网不对本文拥有版权,如有侵犯,请联系邮箱:fuyouu#yandex.com[#换成@]投诉。我们会在15个工作日内删除。 但烦请转载时请标明出处:“本文转载于『浮游电影网』,原文地址:https://www.fuyouu.com/22086.html

评论吧骚年!

发表你的见解   

昵称*

E-mail*(建议输入,以便收到博主回复的提示邮件)

验证码*

您可以使用eMule或eMule Mod(Windows)、aMule(Win、Linux、Mac)等软件下载eD2k链接。。
eMule收藏集(.emulecollection)文件是您选中的所有链接的列表文件。eMule可以直接下载它们。
按住SHIFT键选择可以选中多个选择框。
可用文件名和大小选择器来选择文件。
文件名选择器帮您根据文件名称或后缀来选择文件。不分大小写。
符号使用:
和:空格( )、+
不包含:-
或:|
转义:一对英文引号("");
匹配开头:^
匹配结尾:$
例如:
选中所有名称中包含有“eMule”或“0.49c”字眼,但不包含有“exe”字眼的:emule|0.49c -exe
选中所有名称的开头是“eMule”,结尾是“0.49c”的:^emule 0.49c$
选中所有名称中带有“eMule 0.49c”的(必须是“eMule 0.49c”,中间没有别的字符,不能是“eMule fake 0.49c”),需要转义:"emule 0.49c"
大小选择器帮您根据文件大小选择文件。