当前位置: 首页 >> 欧美电影 >> 加州公路巡警[中文字幕].Chips.2017.2160p.WEB-DL.x265.10bit.HDR.DTS-HD.MA.5.1-NOGRP 13.03GB >> 正文

加州公路巡警[中文字幕].Chips.2017.2160p.WEB-DL.x265.10bit.HDR.DTS-HD.MA.5.1-NOGRP 13.03GB

2022年05月12日 22:53:58     电影发布:来源于网络     电影分类:欧美电影     评论(0)    

加州公路巡警[中文字幕].Chips.2017.2160p.WEB DL.x265.10bit.HDR.DTS HD.MA.5.1 NOGRP 13.03GB  欧美电影  第1张

加州公路巡警[中文字幕].Chips.2017.2160p.WEB DL.x265.10bit.HDR.DTS HD.MA.5.1 NOGRP 13.03GB  欧美电影  第2张

◎译 名 加州公路巡警 / 公路巡警

◎片 名 CHIPS

◎年 代 2017

◎产 地 美国

◎类 别 剧情 / 喜剧 / 动作

◎语 言 英语

◎上映日期 2017-03-24(美国)

◎IMDb链接 https://www.imdb.com/title/tt0493405/

◎豆瓣评分 6.6/10 (4170人评价)

◎豆瓣链接 https://movie.douban.com/subject/3011328/

◎片 长 100分钟

◎导 演 戴克斯·夏普德 Dax Shepard (id:1013777)

◎编 剧 戴克斯·夏普德 Dax Shepard (id:1013777)

◎演 员 迈克尔·佩纳 Michael Pe?a (id:1131634)

戴克斯·夏普德 Dax Shepard (id:1013777)

杰西卡·麦克娜美 Jessica McNamee (id:1313567)

亚当·布罗迪 Adam Brody (id:1003488)

瑞恩·汉森 Ryan Hansen (id:1009328)

克里斯汀·贝尔 Kristen Bell (id:1031240)

文森特·多诺费奥 Vincent D'Onofrio (id:1010546)

本·法尔科内 Ben Falcone (id:1330277)

贾斯汀·查特文 Justin Chatwin (id:1040530)

罗莎·萨拉查 Rosa Salazar (id:1342762)

玛娅·鲁道夫 Maya Rudolph (id:1025183)

亚当·罗德里格兹 Adam Rodriguez (id:1000117)

简·卡兹玛拉克 Jane Kaczmarek (id:1036422)

维达·茱拉 Vida Guerra (id:1032199)

玛拉·马里尼 Mara Marini (id:1336281)

雷妮·莫尼梅克 Renae Moneymaker (id:1399656)

◎简 介

高速路上的巡警们每天的职责,除了抓偷车贼和对超速车辆进行追捕罚款之外,还有很多更多的乐趣。如今,在加州早已闻名的高速巡警弗兰克(迈克尔·佩纳饰)不仅是个脾气火爆办案也火爆的家伙,更有一身让领导难以容忍的坏脾气,但同行们却送给他“邮袋”的绰号,意思是他总能及时解决大麻烦,不过也会给别人惹下大麻烦。与此同时,另一个叫贝克(戴克斯·夏普德饰)的巡警同样饱受争议,不仅行事高调、满嘴的限制级语言,连脾气也和弗兰克很像。但两人办起案来却相当的投入和尽责。如今,两人被安排为新搭档。车技了得的他们在改装高手的帮助下,也开启了加州高速路上的大抓捕……

  1. Video

  2. ID : 1

  3. Format : HEVC

  4. Format/Info : High Efficiency Video Coding

  5. Format profile : Main [email protected]@High

  6. HDR format : SMPTE ST 2086, HDR10 compatible

  7. Codec ID : V_MPEGH/ISO/HEVC

  8. Duration : 1 h 40 min

  9. Bit rate : 14.2 Mb/s

  10. Width : 3 840 pixels

  11. Height : 2 160 pixels

  12. Display aspect ratio : 16:9

  13. Frame rate mode : Constant

  14. Frame rate : 23.976 FPS

  15. Color space : YUV

  16. Chroma subsampling : 4:2:0 (Type 2)

  17. Bit depth : 10 bits

  18. Bits/(Pixel*Frame) : 0.071

  19. Stream size : 9.98 GiB (77%)

  20. Default : Yes

  21. Forced : No

  22. Color range : Limited

  23. Color primaries : BT.2020

  24. Transfer characteristics : PQ

  25. Matrix coefficients : BT.2020 non-constant

  26. Mastering display color primaries : BT.2020

  27. Mastering display luminance : min: 0.0050 cd/m2, max: 1000 cd/m2

  28. Maximum Content Light Level : 1280 cd/m2

  29. Maximum Frame-Average Light Level : 690 cd/m2


  30. Audio #1

  31. ID : 2

  32. Format : DTS XLL

  33. Format/Info : Digital Theater Systems

  34. Commercial name : DTS-HD Master Audio

  35. Codec ID : A_DTS

  36. Duration : 1 h 40 min

  37. Bit rate mode : Variable

  38. Bit rate : 3 942 kb/s

  39. Channel(s) : 6 channels

  40. Channel layout : C L R Ls Rs LFE

  41. Sampling rate : 48.0 kHz

  42. Frame rate : 93.750 FPS (512 SPF)

  43. Bit depth : 24 bits

  44. Compression mode : Lossless

  45. Delay relative to video : 3 ms

  46. Stream size : 2.78 GiB (21%)

  47. Title : DTS-HD MA 5.1

  48. Language : English

  49. Default : Yes

  50. Forced : No


  51. Audio #2

  52. ID : 3

  53. Format : AC-3

  54. Format/Info : Audio Coding 3

  55. Commercial name : Dolby Digital

  56. Codec ID : A_AC3

  57. Duration : 1 h 40 min

  58. Bit rate mode : Constant

  59. Bit rate : 384 kb/s

  60. Channel(s) : 6 channels

  61. Channel layout : L R C LFE Ls Rs

  62. Sampling rate : 48.0 kHz

  63. Frame rate : 31.250 FPS (1536 SPF)

  64. Compression mode : Lossy

  65. Stream size : 277 MiB (2%)

  66. Language : English

  67. Service kind : Complete Main

  68. Default : Yes

  69. Forced : No


  70. Text #1

  71. ID : 4

  72. Format : UTF-8

  73. Codec ID : S_TEXT/UTF8

  74. Codec ID/Info : UTF-8 Plain Text

  75. Duration : 1 h 39 min

  76. Bit rate : 95 b/s

  77. Count of elements : 2188

  78. Stream size : 69.7 KiB (0%)

  79. Title : English CC

  80. Language : English

  81. Default : Yes

  82. Forced : No


  83. Text #2

  84. ID : 5

  85. Format : UTF-8

  86. Codec ID : S_TEXT/UTF8

  87. Codec ID/Info : UTF-8 Plain Text

  88. Duration : 1 h 38 min

  89. Bit rate : 138 b/s

  90. Count of elements : 1869

  91. Stream size : 99.6 KiB (0%)

  92. Title : Arabic

  93. Language : Arabic

  94. Default : No

  95. Forced : No


  96. Text #3

  97. ID : 6

  98. Format : UTF-8

  99. Codec ID : S_TEXT/UTF8

  100. Codec ID/Info : UTF-8 Plain Text

  101. Duration : 1 h 40 min

  102. Bit rate : 121 b/s

  103. Count of elements : 1898

  104. Stream size : 88.9 KiB (0%)

  105. Title : Bulgarian

  106. Language : Bulgarian

  107. Default : No

  108. Forced : No


  109. Text #4

  110. ID : 7

  111. Format : UTF-8

  112. Codec ID : S_TEXT/UTF8

  113. Codec ID/Info : UTF-8 Plain Text

  114. Duration : 1 h 38 min

  115. Bit rate : 76 b/s

  116. Count of elements : 1868

  117. Stream size : 55.0 KiB (0%)

  118. Title : Chinese Mandarin Chinese Simplified

  119. Language : Chinese

  120. Default : No

  121. Forced : No


  122. Text #5

  123. ID : 8

  124. Format : UTF-8

  125. Codec ID : S_TEXT/UTF8

  126. Codec ID/Info : UTF-8 Plain Text

  127. Duration : 1 h 40 min

  128. Bit rate : 63 b/s

  129. Count of elements : 1869

  130. Stream size : 46.8 KiB (0%)

  131. Title : Chinese Mandarin Chinese Traditional

  132. Language : Chinese

  133. Default : No

  134. Forced : No


  135. Text #6

  136. ID : 9

  137. Format : UTF-8

  138. Codec ID : S_TEXT/UTF8

  139. Codec ID/Info : UTF-8 Plain Text

  140. Duration : 1 h 38 min

  141. Bit rate : 76 b/s

  142. Count of elements : 1854

  143. Stream size : 55.2 KiB (0%)

  144. Title : Danish

  145. Language : Danish

  146. Default : No

  147. Forced : No


  148. Text #7

  149. ID : 10

  150. Format : UTF-8

  151. Codec ID : S_TEXT/UTF8

  152. Codec ID/Info : UTF-8 Plain Text

  153. Duration : 1 h 38 min

  154. Bit rate : 98 b/s

  155. Count of elements : 1958

  156. Stream size : 71.0 KiB (0%)

  157. Title : German

  158. Language : German

  159. Default : No

  160. Forced : No


  161. Text #8

  162. ID : 11

  163. Format : UTF-8

  164. Codec ID : S_TEXT/UTF8

  165. Codec ID/Info : UTF-8 Plain Text

  166. Duration : 1 h 40 min

  167. Bit rate : 126 b/s

  168. Count of elements : 1861

  169. Stream size : 93.0 KiB (0%)

  170. Title : Greek

  171. Language : Greek

  172. Default : No

  173. Forced : No


  174. Text #9

  175. ID : 12

  176. Format : UTF-8

  177. Codec ID : S_TEXT/UTF8

  178. Codec ID/Info : UTF-8 Plain Text

  179. Duration : 1 h 40 min

  180. Bit rate : 76 b/s

  181. Count of elements : 1880

  182. Stream size : 56.5 KiB (0%)

  183. Title : Spanish Latin American

  184. Language : Spanish

  185. Default : No

  186. Forced : No


  187. Text #10

  188. ID : 13

  189. Format : UTF-8

  190. Codec ID : S_TEXT/UTF8

  191. Codec ID/Info : UTF-8 Plain Text

  192. Duration : 1 h 38 min

  193. Bit rate : 79 b/s

  194. Count of elements : 1831

  195. Stream size : 57.1 KiB (0%)

  196. Title : Spanish European

  197. Language : Spanish

  198. Default : No

  199. Forced : No


  200. Text #11

  201. ID : 14

  202. Format : UTF-8

  203. Codec ID : S_TEXT/UTF8

  204. Codec ID/Info : UTF-8 Plain Text

  205. Duration : 1 h 38 min

  206. Bit rate : 79 b/s

  207. Count of elements : 1858

  208. Stream size : 56.9 KiB (0%)

  209. Title : Estonian

  210. Language : Estonian

  211. Default : No

  212. Forced : No


  213. Text #12

  214. ID : 15

  215. Format : UTF-8

  216. Codec ID : S_TEXT/UTF8

  217. Codec ID/Info : UTF-8 Plain Text

  218. Duration : 1 h 38 min

  219. Bit rate : 70 b/s

  220. Count of elements : 1858

  221. Stream size : 51.0 KiB (0%)

  222. Title : Finnish

  223. Language : Finnish

  224. Default : No

  225. Forced : No


  226. Text #13

  227. ID : 16

  228. Format : UTF-8

  229. Codec ID : S_TEXT/UTF8

  230. Codec ID/Info : UTF-8 Plain Text

  231. Duration : 1 h 38 min

  232. Bit rate : 86 b/s

  233. Count of elements : 1855

  234. Stream size : 61.9 KiB (0%)

  235. Title : French Canadian

  236. Language : French

  237. Default : No

  238. Forced : No


  239. Text #14

  240. ID : 17

  241. Format : UTF-8

  242. Codec ID : S_TEXT/UTF8

  243. Codec ID/Info : UTF-8 Plain Text

  244. Duration : 1 h 40 min

  245. Bit rate : 84 b/s

  246. Count of elements : 1856

  247. Stream size : 62.0 KiB (0%)

  248. Title : French European

  249. Language : French

  250. Default : No

  251. Forced : No


  252. Text #15

  253. ID : 18

  254. Format : UTF-8

  255. Codec ID : S_TEXT/UTF8

  256. Codec ID/Info : UTF-8 Plain Text

  257. Duration : 1 h 40 min

  258. Bit rate : 125 b/s

  259. Count of elements : 1899

  260. Stream size : 92.0 KiB (0%)

  261. Title : Hebrew

  262. Language : Hebrew

  263. Default : No

  264. Forced : No


  265. Text #16

  266. ID : 19

  267. Format : UTF-8

  268. Codec ID : S_TEXT/UTF8

  269. Codec ID/Info : UTF-8 Plain Text

  270. Duration : 1 h 40 min

  271. Bit rate : 74 b/s

  272. Count of elements : 1853

  273. Stream size : 54.8 KiB (0%)

  274. Title : Hungarian

  275. Language : Hungarian

  276. Default : No

  277. Forced : No


  278. Text #17

  279. ID : 20

  280. Format : UTF-8

  281. Codec ID : S_TEXT/UTF8

  282. Codec ID/Info : UTF-8 Plain Text

  283. Duration : 1 h 38 min

  284. Bit rate : 75 b/s

  285. Count of elements : 1858

  286. Stream size : 54.2 KiB (0%)

  287. Title : Indonesian

  288. Language : Indonesian

  289. Default : No

  290. Forced : No


  291. Text #18

  292. ID : 21

  293. Format : UTF-8

  294. Codec ID : S_TEXT/UTF8

  295. Codec ID/Info : UTF-8 Plain Text

  296. Duration : 1 h 38 min

  297. Bit rate : 77 b/s

  298. Count of elements : 1915

  299. Stream size : 55.7 KiB (0%)

  300. Title : Italian

  301. Language : Italian

  302. Default : No

  303. Forced : No


  304. Text #19

  305. ID : 22

  306. Format : UTF-8

  307. Codec ID : S_TEXT/UTF8

  308. Codec ID/Info : UTF-8 Plain Text

  309. Duration : 1 h 40 min

  310. Bit rate : 77 b/s

  311. Count of elements : 1912

  312. Stream size : 56.6 KiB (0%)

  313. Title : Lithuanian

  314. Language : Lithuanian

  315. Default : No

  316. Forced : No


  317. Text #20

  318. ID : 23

  319. Format : UTF-8

  320. Codec ID : S_TEXT/UTF8

  321. Codec ID/Info : UTF-8 Plain Text

  322. Duration : 1 h 38 min

  323. Bit rate : 79 b/s

  324. Count of elements : 1859

  325. Stream size : 57.2 KiB (0%)

  326. Title : Latvian

  327. Language : Latvian

  328. Default : No

  329. Forced : No


  330. Text #21

  331. ID : 24

  332. Format : UTF-8

  333. Codec ID : S_TEXT/UTF8

  334. Codec ID/Info : UTF-8 Plain Text

  335. Duration : 1 h 40 min

  336. Bit rate : 59 b/s

  337. Count of elements : 1374

  338. Stream size : 43.8 KiB (0%)

  339. Title : Dutch

  340. Language : Dutch

  341. Default : No

  342. Forced : No


  343. Text #22

  344. ID : 25

  345. Format : UTF-8

  346. Codec ID : S_TEXT/UTF8

  347. Codec ID/Info : UTF-8 Plain Text

  348. Duration : 1 h 38 min

  349. Bit rate : 64 b/s

  350. Count of elements : 1335

  351. Stream size : 46.8 KiB (0%)

  352. Title : Norwegian

  353. Language : Norwegian

  354. Default : No

  355. Forced : No


  356. Text #23

  357. ID : 26

  358. Format : UTF-8

  359. Codec ID : S_TEXT/UTF8

  360. Codec ID/Info : UTF-8 Plain Text

  361. Duration : 1 h 38 min

  362. Bit rate : 71 b/s

  363. Count of elements : 1852

  364. Stream size : 51.8 KiB (0%)

  365. Title : Polish

  366. Language : Polish

  367. Default : No

  368. Forced : No


  369. Text #24

  370. ID : 27

  371. Format : UTF-8

  372. Codec ID : S_TEXT/UTF8

  373. Codec ID/Info : UTF-8 Plain Text

  374. Duration : 1 h 40 min

  375. Bit rate : 70 b/s

  376. Count of elements : 1883

  377. Stream size : 52.1 KiB (0%)

  378. Title : Portuguese Brazilian

  379. Language : Portuguese

  380. Default : No

  381. Forced : No


  382. Text #25

  383. ID : 28

  384. Format : UTF-8

  385. Codec ID : S_TEXT/UTF8

  386. Codec ID/Info : UTF-8 Plain Text

  387. Duration : 1 h 40 min

  388. Bit rate : 69 b/s

  389. Count of elements : 1875

  390. Stream size : 51.2 KiB (0%)

  391. Title : Portuguese European

  392. Language : Portuguese

  393. Default : No

  394. Forced : No


  395. Text #26

  396. ID : 29

  397. Format : UTF-8

  398. Codec ID : S_TEXT/UTF8

  399. Codec ID/Info : UTF-8 Plain Text

  400. Duration : 1 h 40 min

  401. Bit rate : 122 b/s

  402. Count of elements : 1867

  403. Stream size : 90.1 KiB (0%)

  404. Title : Russian

  405. Language : Russian

  406. Default : No

  407. Forced : No


  408. Text #27

  409. ID : 30

  410. Format : UTF-8

  411. Codec ID : S_TEXT/UTF8

  412. Codec ID/Info : UTF-8 Plain Text

  413. Duration : 1 h 38 min

  414. Bit rate : 70 b/s

  415. Count of elements : 1853

  416. Stream size : 50.6 KiB (0%)

  417. Title : Slovenian

  418. Language : Slovenian

  419. Default : No

  420. Forced : No


  421. Text #28

  422. ID : 31

  423. Format : UTF-8

  424. Codec ID : S_TEXT/UTF8

  425. Codec ID/Info : UTF-8 Plain Text

  426. Duration : 1 h 38 min

  427. Bit rate : 77 b/s

  428. Count of elements : 1855

  429. Stream size : 55.6 KiB (0%)

  430. Title : Swedish

  431. Language : Swedish

  432. Default : No

  433. Forced : No


  434. Text #29

  435. ID : 32

  436. Format : UTF-8

  437. Codec ID : S_TEXT/UTF8

  438. Codec ID/Info : UTF-8 Plain Text

  439. Duration : 1 h 38 min

  440. Bit rate : 202 b/s

  441. Count of elements : 1868

  442. Stream size : 145 KiB (0%)

  443. Title : Thai

  444. Language : Thai

  445. Default : No

  446. Forced : No


  447. Text #30

  448. ID : 33

  449. Format : UTF-8

  450. Codec ID : S_TEXT/UTF8

  451. Codec ID/Info : UTF-8 Plain Text

  452. Duration : 1 h 38 min

  453. Bit rate : 79 b/s

  454. Count of elements : 1852

  455. Stream size : 56.9 KiB (0%)

  456. Title : Turkish

  457. Language : Turkish

  458. Default : No

  459. Forced : No


  460. Text #31

  461. ID : 34

  462. Format : UTF-8

  463. Codec ID : S_TEXT/UTF8

  464. Codec ID/Info : UTF-8 Plain Text

  465. Duration : 1 h 40 min

  466. Bit rate : 60 b/s

  467. Count of elements : 1867

  468. Stream size : 44.3 KiB (0%)

  469. Title : Chinese Cantonese Traditional

  470. Language : Chinese

  471. Default : No

  472. Forced : No


  473. Menu

  474. 00:00:00.000 : en:Chapter 01

  475. 00:10:48.000 : en:Chapter 02

  476. 00:19:28.000 : en:Chapter 03

  477. 00:29:57.000 : en:Chapter 04

  478. 00:39:53.000 : en:Chapter 05

  479. 00:50:45.000 : en:Chapter 06

  480. 01:02:38.000 : en:Chapter 07

  481. 01:13:40.000 : en:Chapter 08

  482. 01:25:41.000 : en:Chapter 09

  483. 01:37:41.000 : en:Chapter 10

复制代码

加州公路巡警[中文字幕].Chips.2017.2160p.WEB DL.x265.10bit.HDR.DTS HD.MA.5.1 NOGRP 13.03GB  欧美电影  第3张 加州公路巡警[中文字幕].Chips.2017.2160p.WEB DL.x265.10bit.HDR.DTS HD.MA.5.1 NOGRP 13.03GB  欧美电影  第4张 加州公路巡警[中文字幕].Chips.2017.2160p.WEB DL.x265.10bit.HDR.DTS HD.MA.5.1 NOGRP 13.03GB  欧美电影  第5张



文件下载


除非特别注明,本文『加州公路巡警[中文字幕].Chips.2017.2160p.WEB-DL.x265.10bit.HDR.DTS-HD.MA.5.1-NOGRP 13.03GB』来源于互联网机器人自动抓取,非本站原创。 浮游电影网不对本文拥有版权,如有侵犯,请联系邮箱:fuyouu#yandex.com[#换成@]投诉。我们会在15个工作日内删除。 但烦请转载时请标明出处:“本文转载于『浮游电影网』,原文地址:https://www.fuyouu.com/22085.html

评论吧骚年!

发表你的见解   

昵称*

E-mail*(建议输入,以便收到博主回复的提示邮件)

验证码*

您可以使用eMule或eMule Mod(Windows)、aMule(Win、Linux、Mac)等软件下载eD2k链接。。
eMule收藏集(.emulecollection)文件是您选中的所有链接的列表文件。eMule可以直接下载它们。
按住SHIFT键选择可以选中多个选择框。
可用文件名和大小选择器来选择文件。
文件名选择器帮您根据文件名称或后缀来选择文件。不分大小写。
符号使用:
和:空格( )、+
不包含:-
或:|
转义:一对英文引号("");
匹配开头:^
匹配结尾:$
例如:
选中所有名称中包含有“eMule”或“0.49c”字眼,但不包含有“exe”字眼的:emule|0.49c -exe
选中所有名称的开头是“eMule”,结尾是“0.49c”的:^emule 0.49c$
选中所有名称中带有“eMule 0.49c”的(必须是“eMule 0.49c”,中间没有别的字符,不能是“eMule fake 0.49c”),需要转义:"emule 0.49c"
大小选择器帮您根据文件大小选择文件。