当前位置: 首页 >> 欧美电影 >> 大门[国英多音轨/简英字幕].The.Doors.1991.BluRay.2160p.x265.10bit.HDR.2Audios-MiniHD 19.15GB >> 正文

大门[国英多音轨/简英字幕].The.Doors.1991.BluRay.2160p.x265.10bit.HDR.2Audios-MiniHD 19.15GB

2022年05月12日 22:49:11     电影发布:来源于网络     电影分类:欧美电影     评论(0)    

◎译 名 大门 / 火乐焚城 / 门 / 多尔乐队 / 大门乐队

◎片 名 The Doors

◎年 代 1991

◎产 地 美国

◎类 别 剧情 / 音乐 / 传记

◎语 言 英语

◎上映日期 1991-02-23

◎IMDb链接 https://www.imdb.com/title/tt0101761/

◎豆瓣评分 8.0/10 (8421人评价)

◎豆瓣链接 https://movie.douban.com/subject/1291846/

◎片 长 140 分钟

◎导 演 奥利佛·斯通 Oliver Stone (id:1054513)

◎编 剧 兰道尔·约翰逊 Randall Jahnson (id:1410119)

奥利佛·斯通 Oliver Stone (id:1054513)

◎演 员 方·基默 Val Kilmer (id:1013761)

梅格·瑞恩 Meg Ryan (id:1016679)

凯尔·麦克拉克伦 Kyle MacLachlan (id:1031874)

弗兰克·威利 Frank Whaley (id:1010646)

凯文·狄龙 Kevin Dillon (id:1022629)

迈克尔·维克特 Michael Wincott (id:1055545)

迈克尔·马德森 Michael Madsen (id:1027816)

乔希·埃文斯 Josh Evans (id:1014165)

丹尼斯·伯克利 Dennis Burkley (id:1077543)

比利·伊多尔 Billy Idol (id:1054863)

凯瑟琳·奎南 Kathleen Quinlan (id:1041161)

约翰·登斯默 John Densmore (id:1037190)

西恩·斯通 Sean Stone (id:1014216)

弗洛伊德·怀斯特曼 Floyd 'Red Crow' Westerman (id:1023029)

韦斯·斯塔迪 Wes Studi (id:1036366)

史蒂夫·里维斯 Steve Reevis (id:1022924)

伯纳德·特尔西 Bernard Telsey (id:1299038)

安德鲁·劳厄尔 Andrew Lauer (id:1019161)

胡凯莉 Kelly Hu (id:1006984)

朱茜·比赛特 Josie Bissett (id:1027324)

菲奥娜 Fiona (id:1086217)

罗伯特·卢波内 Robert LuPone (id:1125009)

保罗·A·罗思柴尔德 Paul A. Rothchild (id:1137488)

约翰·卡波迪斯 John Capodice (id:1070096)

埃里克·伯登 Eric Burdon (id:1067600)

黛比·玛扎 Debi Mazar (id:1025222)

马克·摩斯 Mark Moses (id:1032084)

弗兰克·米利塔里 Frank Military (id:1292049)

黛伯拉·法奥康纳 Deborah Falconer (id:1022766)

威尔·乔丹 Will Jordan (id:1109852)

山姆·惠普尔 Sam Whipple (id:1169103)

查利·斯普拉德林 Charlie Spradling (id:1125373)

丽莎·艾德尔斯汀 Lisa Edelstein (id:1017940)

埃里克·德拉姆斯 Erik Dellums (id:1080916)

米密·罗杰斯 Mimi Rogers (id:1004622)

詹妮弗·鲁宾 Jennifer Rubin (id:1145234)

保罗·威廉姆斯 Paul Williams (id:1167698)

科斯塔斯·曼迪勒 Costas Mandylor (id:1049669)

克里斯蒂娜·富尔顿 Christina Fulton (id:1090496)

克里斯平·格洛弗 Crispin Glover (id:1002666)

克莱尔·斯坦斯菲尔德 Claire Stansfield (id:1152532)

卡琳娜·隆巴德 Karina Lombard (id:1004671)

克里斯多福·劳福德 Christopher Lawford (id:1000492)

劳拉·伊斯特曼 Laura Esterman (id:1087296)

比尔·格雷厄姆 Bill Graham (id:1014697)

提图斯·维里沃 Titus Welliver (id:1165630)

伊格尔·艾·谢里 Eagle Eye Cherry (id:1075002)

丹尼·沙利文 Danny Sullivan (id:1160675)

邦妮·布拉姆利特 Bonnie Bramlett (id:1077144)

罗德尼·格兰特 Rodney A. Grant (id:1032204)

帕特里夏·肯尼利 Patricia Kennealy (id:1114709)

基思·雷丁 Keith Reddin (id:1010206)

比利·维拉 Billy Vera (id:1151522)

阿兰·格拉夫 Allan Graf (id:1285262)

杰克·麦吉 Jack McGee (id:1313133)

艾伦·曼森 Alan Manson (id:1116621)

威廉姆·库斯特勒 William Kunstler (id:1010985)

杰德·马杰 Jad Mager (id:1125451)

理查德·鲁托夫斯基 Richard Rutowski (id:1357117)

阿瑟·布雷默 Arthur Bremer (id:1074721)

凯特·布伦南 M.C. Brennan (id:1193951)

奥利佛·斯通 Oliver Stone (id:1054513)

罗伯特·理查森 Robert Richardson (id:1050019)

◎简 介

本片忠实地记述了1960年代美国迷幻摇滚代表乐队——大门乐队的灵魂主唱吉姆·莫里森(方·基默 Val Kilmer饰)从成名到自我毁灭的一生。

在电影学校,莫里森结识了喜欢弹钢琴的键盘手雷·曼札克,两人一拍即合,决定组建一支令世界震惊的摇滚乐队:The Doors。很快,莫里森在这里找到了其他两位乐队成员:鼓手约翰·丹斯莫和吉他手罗比·克雷格。不久,大门乐队因《Light My Fire》一跃成名,万千乐迷为之疯狂。在拥有金钱名利诸多光环后的莫里森,却始终无法被任何人真正了解,有人认为他是诗人、艺术家,也有人把他当做疯子、瘾君子。27岁的莫里森最终选择了死亡来结束这段无以伦比的个人传奇。

  1. ##### MediaInfo ######

  2. General

  3. Unique ID : 267728575965493893472098833553595112464 (0xC96AA5ECA27F0AA2D8C35D896F6D1C10)

  4. Complete name : The.Doors.1991.BluRay.2160p.x265.10bit.HDR.2Audios-MiniHD.mkv

  5. Format : Matroska

  6. Format version : Version 4

  7. File size : 19.2 GiB

  8. Duration : 2 h 20 min

  9. Overall bit rate mode : Variable

  10. Overall bit rate : 19.5 Mb/s

  11. Encoded date : UTC 2019-07-26 20:13:23

  12. Writing application : mkvmerge v27.0.0 ('Metropolis') 64-bit

  13. Writing library : libebml v1.3.6 + libmatroska v1.4.9

  14. Video

  15. ID : 1

  16. Format : HEVC

  17. Format/Info : High Efficiency Video Coding

  18. Format profile : Main [email protected]@High

  19. HDR format : SMPTE ST 2086, HDR10 compatible

  20. Codec ID : V_MPEGH/ISO/HEVC

  21. Duration : 2 h 20 min

  22. Bit rate : 15.1 Mb/s

  23. Width : 3 840 pixels

  24. Height : 1 600 pixels

  25. Display aspect ratio : 2.40:1

  26. Frame rate mode : Constant

  27. Frame rate : 24.000 FPS

  28. Original frame rate : 23.976 (24000/1001/53354) FPS

  29. Color space : YUV

  30. Chroma subsampling : 4:2:0

  31. Bit depth : 10 bits

  32. Bits/(Pixel*Frame) : 0.102

  33. Stream size : 14.8 GiB (77%)

  34. Title : mUHD-FRDS

  35. Writing library : x265 3.1+2-g764455672+26:[Windows][GCC 8.3.0][64 bit] Yuuki 10bit+8bit+12bit

  36. Encoding settings : rc=crf / crf=20.0000 / qcomp=0.85 / qpstep=4 / stats-write=0 / stats-read=0 / vbv-maxrate=160000 / vbv-bufsize=160000 / vbv-init=0.9 / crf-max=0.0 / crf-min=0.0 / no-lossless / no-cu-lossless / aq-mode=3 / aq-strength=0.90 / cbqpoffs=-3 / crqpoffs=-3 / ipratio=1.40 / pbratio=1.30 / psy-rd=2.00 / psy-rdoq=3.00 / deblock=-1:-1 / ref=5 / limit-refs=1 / limit-modes / bframes=8 / b-adapt=2 / bframe-bias=0 / b-pyramid / b-intra / weightp / weightb / min-keyint=23 / max-keyint=240 / rc-lookahead=60 / gop-lookahead=0 / NTMzNTQ=uuDQuD2mJt9fsCf / scenecut=40 / radl=0 / max-cu-size=32 / min-cu-size=8 / me=3 / subme=4 / merange=25 / rdoq-level=2 / rd=4 / rdpenalty=1 / dynamic-rd=0.00 / no-rd-refine / ----- / no-cutree / no-sao / no-rect / no-amp / no-open-gop / wpp / pmode / pme / no-psnr / no-ssim / nr-intra=0 / nr-inter=0 / no-constrained-intra / no-strong-intra-smoothing / max-tu-size=32 / tu-inter-depth=2 / tu-intra-depth=2 / limit-tu=0 / qg-size=32 / qpmax=69 / qpmin=0 / ----- / cpuid=533541111039 / frame-threads=6 / numa-pools=48,- / log-level=2 / input-csp=1 / input-res=3840x1600 / interlace=0 / level-idc=0 / high-tier=1 / uhd-bd=0 / no-allow-non-conformance / no-repeat-headers / no-aud / hrd / info / hash=0 / no-temporal-layers / lookahead-slices=0 / no-splice / no-intra-refresh / no-ssim-rd / signhide / no-tskip / max-merge=3 / temporal-mvp / no-analyze-src-pics / no-sao-non-deblock / no-early-skip / no-rskip / no-fast-intra / no-tskip-fast / no-splitrd-skip / zone-count=0 / no-strict-cbr / no-rc-grain / no-const-vbv / sar=0 / overscan=0 / videoformat=5 / range=0 / colorprim=9 / transfer=16 / colormatrix=9 / chromaloc=0 / display-window=0 / master-display=G(13250,34500)B(7500,3000)R(34000,16000)WP(15635,16450)L(10000000,1)cll=0,0 / min-luma=0 / max-luma=1023 / log2-max-poc-lsb=8 / vui-timing-info / vui-hrd-info / slices=1 / no-opt-qp-pps / no-opt-ref-list-length-pps / no-multi-pass-opt-rps / scenecut-bias=0.05 / no-opt-cu-delta-qp / no-aq-motion / hdr / hdr-opt / no-dhdr10-opt / no-idr-recovery-sei / analysis-reuse-level=5 / scale-factor=0 / refine-intra=0 / refine-inter=0 / refine-mv=0 / refine-ctu-distortion=0 / no-limit-sao / ctu-info=0 / no-lowpass-dct / refine-analysis-type=0 / copy-pic=1 / max-ausize-factor=1.0 / no-dynamic-refine / no-single-sei / no-hevc-aq / no-svt / no-field / qp-adaptation-range=1.00

  37. Default : Yes

  38. Forced : No

  39. Color range : Limited

  40. Color primaries : BT.2020

  41. Transfer characteristics : PQ

  42. Matrix coefficients : BT.2020 non-constant

  43. Mastering display color primaries : Display P3

  44. Mastering display luminance : min: 0.0001 cd/m2, max: 1000 cd/m2

  45. Audio #1

  46. ID : 2

  47. Format : MLP FBA 16-ch

  48. Format/Info : Meridian Lossless Packing FBA with 16-channel presentation

  49. Commercial name : Dolby TrueHD with Dolby Atmos

  50. Codec ID : A_TRUEHD

  51. Duration : 2 h 20 min

  52. Bit rate mode : Variable

  53. Bit rate : 3 444 kb/s

  54. Maximum bit rate : 5 028 kb/s

  55. Channel(s) : 8 channels

  56. Channel layout : L R C LFE Ls Rs Lb Rb

  57. Sampling rate : 48.0 kHz

  58. Frame rate : 1 200.000 FPS (40 SPF)

  59. Compression mode : Lossless

  60. Delay relative to video : 3 s 41 ms

  61. Stream size : 3.38 GiB (18%)

  62. Language : English

  63. Default : Yes

  64. Forced : No

  65. Number of dynamic objects : 11

  66. Bed channel count : 1 channel

  67. Bed channel configuration : LFE

  68. Audio #2

  69. ID : 3

  70. Format : AC-3

  71. Format/Info : Audio Coding 3

  72. Commercial name : Dolby Digital

  73. Codec ID : A_AC3

  74. Duration : 2 h 20 min

  75. Bit rate mode : Constant

  76. Bit rate : 640 kb/s

  77. Channel(s) : 6 channels

  78. Channel layout : L R C LFE Ls Rs

  79. Sampling rate : 48.0 kHz

  80. Frame rate : 31.250 FPS (1536 SPF)

  81. Compression mode : Lossy

  82. Stream size : 643 MiB (3%)

  83. Language : English

  84. Service kind : Complete Main

  85. Default : No

  86. Forced : No

  87. Audio #3

  88. ID : 4

  89. Format : AC-3

  90. Format/Info : Audio Coding 3

  91. Commercial name : Dolby Digital

  92. Codec ID : A_AC3

  93. Duration : 2 h 20 min

  94. Bit rate mode : Constant

  95. Bit rate : 224 kb/s

  96. Channel(s) : 2 channels

  97. Channel layout : L R

  98. Sampling rate : 48.0 kHz

  99. Frame rate : 31.250 FPS (1536 SPF)

  100. Compression mode : Lossy

  101. Stream size : 225 MiB (1%)

  102. Title : 六区国配

  103. Language : Chinese

  104. Service kind : Complete Main

  105. Default : No

  106. Forced : No

  107. Text #1

  108. ID : 5

  109. Format : PGS

  110. Muxing mode : zlib

  111. Codec ID : S_HDMV/PGS

  112. Codec ID/Info : Picture based subtitle format used on BDs/HD-DVDs

  113. Duration : 2 h 12 min

  114. Bit rate : 43.2 kb/s

  115. Count of elements : 3979

  116. Stream size : 40.9 MiB (0%)

  117. Language : English

  118. Default : Yes

  119. Forced : No

  120. Text #2

  121. ID : 6

  122. Format : PGS

  123. Muxing mode : zlib

  124. Codec ID : S_HDMV/PGS

  125. Codec ID/Info : Picture based subtitle format used on BDs/HD-DVDs

  126. Duration : 2 h 12 min

  127. Bit rate : 35.6 kb/s

  128. Count of elements : 3216

  129. Stream size : 33.8 MiB (0%)

  130. Title : 简英双语

  131. Language : Chinese

  132. Default : No

  133. Forced : No


复制代码



文件下载


除非特别注明,本文『大门[国英多音轨/简英字幕].The.Doors.1991.BluRay.2160p.x265.10bit.HDR.2Audios-MiniHD 19.15GB』来源于互联网机器人自动抓取,非本站原创。 浮游电影网不对本文拥有版权,如有侵犯,请联系邮箱:fuyouu#yandex.com[#换成@]投诉。我们会在15个工作日内删除。 但烦请转载时请标明出处:“本文转载于『浮游电影网』,原文地址:https://www.fuyouu.com/22084.html

评论吧骚年!

发表你的见解   

昵称*

E-mail*(建议输入,以便收到博主回复的提示邮件)

验证码*

您可以使用eMule或eMule Mod(Windows)、aMule(Win、Linux、Mac)等软件下载eD2k链接。。
eMule收藏集(.emulecollection)文件是您选中的所有链接的列表文件。eMule可以直接下载它们。
按住SHIFT键选择可以选中多个选择框。
可用文件名和大小选择器来选择文件。
文件名选择器帮您根据文件名称或后缀来选择文件。不分大小写。
符号使用:
和:空格( )、+
不包含:-
或:|
转义:一对英文引号("");
匹配开头:^
匹配结尾:$
例如:
选中所有名称中包含有“eMule”或“0.49c”字眼,但不包含有“exe”字眼的:emule|0.49c -exe
选中所有名称的开头是“eMule”,结尾是“0.49c”的:^emule 0.49c$
选中所有名称中带有“eMule 0.49c”的(必须是“eMule 0.49c”,中间没有别的字符,不能是“eMule fake 0.49c”),需要转义:"emule 0.49c"
大小选择器帮您根据文件大小选择文件。