当前位置: 首页 >> 欧美电影 >> 月光男孩[中英字幕].Moonlight.2016.BluRay.1080p.x265.10bit-MiniHD 2.88GB >> 正文

月光男孩[中英字幕].Moonlight.2016.BluRay.1080p.x265.10bit-MiniHD 2.88GB

2022年05月12日 22:48:14     电影发布:来源于网络     电影分类:欧美电影     评论(0)    

◎译 名 月光男孩 / 月亮喜欢蓝(港) / 月光下的蓝色男孩(台) / 月光人生 / 蓝色月光 / 月光

◎片 名 Moonlight

◎年 代 2016

◎产 地 美国

◎类 别 剧情 / 同性

◎语 言 英语

◎上映日期 2016-09-02(特柳赖德电影节) / 2016-10-21(美国)

◎IMDb链接 https://www.imdb.com/title/tt4975722/

◎豆瓣评分 7.4/10 (141819人评价)

◎豆瓣链接 https://movie.douban.com/subject/26648249/

◎片 长 111分钟

◎导 演 巴里·詹金斯 Barry Jenkins (id:1307235)

◎编 剧 巴里·詹金斯 Barry Jenkins (id:1307235)

塔瑞尔·麦卡尼 Tarell McCraney (id:1365019)

◎演 员 崔凡特·罗兹 Trevante Rhodes (id:1340760)

安德烈·霍兰 Andre Holland (id:1343701)

马赫沙拉·阿里 Mahershala Ali (id:1004702)

娜奥米·哈里斯 Naomie Harris (id:1049542)

加奈儿·梦奈 Janelle Monáe (id:1363386)

艾什顿·桑德斯 Ashton Sanders (id:1367169)

贾雷尔·杰罗姆 Jharrel Jerome (id:1367171)

艾利克斯·希伯特 Alex R. Hibbert (id:1365302)

杰登·派纳 Jaden Piner (id:1367170)

段·桑德森 Duan Sanderson (id:1367172)

艾德森·吉恩 Edson Jean (id:1367173)

斯蒂芬·布隆 Stephon Bron (id:1367174)

Patrick Decile Patrick Decile (id:1370115)

杰瑞米·克莱纳 Jeremy Kleiner (id:1336137)

布拉德·皮特 Brad Pitt (id:1054452)

阿黛尔·罗曼斯基 Adele Romanski (id:1369617)

迪·加德纳 Dede Gardner (id:1284552)

尼古拉斯·布里特尔 Nicholas Britell (id:1369634)

詹姆斯·拉克斯顿 James Laxton (id:1289563)

乔伊·麦克米伦 Joi McMillon (id:1365423)

汉娜·比奇勒 Hannah Beachler (id:1408358)

卡罗琳·埃塞林 Caroline Eselin (id:1467491)

凯莎·雷·威瑟斯彭 Keisha Rae Witherspoon (id:1438592)

◎简 介

奇伦(艾什顿·桑德斯 Ashton Sanders 饰)的母亲宝拉(娜奥米·哈里斯 Naomie Harris 饰)吸毒成瘾根本无心照顾孩子,奇伦从小在孤独中长大,因为过于瘦小的身材而时常遭到周围人的欺侮和作弄。一次偶然中,奇伦结识了毒贩胡安(马赫沙拉·阿里 Maher shala Ali 饰),从此,胡安和其女友特蕾莎(加奈儿·梦奈 Janelle Monae 饰)的住处成为了奇伦的第二个家。

凯文(贾雷尔·杰罗姆 Jharrel Jerome 饰)是奇伦唯一的朋友,随着时间的推移,两人之间的感情渐渐超越了友谊。然而,为了隐藏自己的性取向,凯文不得不在同伴的怂恿下对奇伦大打出手,之后,两人再也没有见过面。一晃眼多年过去,奇伦忽然接到了凯文打来的电话,两人终于决定正视各自心中真正的感情。

◎获奖情况 (共109项)

第89届奥斯卡金像奖 (2017)

最佳影片

最佳导演(提名)

└──巴里·詹金斯 (id:1307235)

最佳男配角

└──马赫沙拉·阿里 (id:1004702)

最佳女配角(提名)

└──娜奥米·哈里斯 (id:1049542)

最佳改编剧本

最佳摄影(提名)

└──詹姆斯·拉克斯顿 (id:1289563)

最佳剪辑(提名)

最佳原创配乐(提名)

└──尼古拉斯·布里特尔 (id:1369634)

第74届金球奖 (2017)

电影类 最佳剧情片

电影类 最佳导演(提名)

└──巴里·詹金斯 (id:1307235)

电影类 最佳男配角(提名)

└──马赫沙拉·阿里 (id:1004702)

电影类 最佳女配角(提名)

└──娜奥米·哈里斯 (id:1049542)

电影类 最佳编剧(提名)

└──巴里·詹金斯 (id:1307235)

电影类 最佳原创配乐(提名)

第70届英国电影学院奖 (2017)

电影奖 最佳影片(提名)

电影奖 最佳男配角(提名)

└──马赫沙拉·阿里 (id:1004702)

电影奖 最佳女配角(提名)

└──娜奥米·哈里斯 (id:1049542)

电影奖 最佳原创剧本(提名)

└──巴里·詹金斯 (id:1307235)

第46届鹿特丹国际电影节 (2017)

观众奖

└──巴里·詹金斯 (id:1307235)

第26届MTV电影奖 (2017)

MTV电影奖 最佳吻戏

第69届美国导演工会奖 (2017)

最佳电影导演(提名)

└──巴里·詹金斯 (id:1307235)

第23届美国演员工会奖 (2017)

电影奖 最佳男配角

└──马赫沙拉·阿里 (id:1004702)

电影奖 最佳女配角(提名)

└──娜奥米·哈里斯 (id:1049542)

电影奖 最佳群戏(提名)

第69届美国编剧工会奖 (2017)

电影奖 最佳原创剧本

第28届美国制片人工会奖 (2017)

最佳电影制片人奖(提名)

第31届美国摄影协会奖 (2017)

电影长片最佳摄影(提名)

└──詹姆斯·拉克斯顿 (id:1289563)

第67届美国剪辑工会奖 (2017)

剧情片最佳剪辑(提名)

第82届纽约影评人协会奖 (2016)

最佳导演

└──巴里·詹金斯 (id:1307235)

最佳男配角

└──马赫沙拉·阿里 (id:1004702)

最佳摄影

└──詹姆斯·拉克斯顿 (id:1289563)

第88届美国国家评论协会奖 (2016)

最佳导演

└──巴里·詹金斯 (id:1307235)

最佳女配角

└──娜奥米·哈里斯 (id:1049542)

年度佳片(提名)

第22届美国评论家选择电影奖 (2017)

最佳影片(提名)

最佳导演(提名)

└──巴里·詹金斯 (id:1307235)

最佳男配角

└──马赫沙拉·阿里 (id:1004702)

最佳女配角(提名)

└──娜奥米·哈里斯 (id:1049542)

最佳青少年演员(提名)

└──艾利克斯·希伯特 (id:1365302)

最佳群戏

最佳原创剧本(提名)

└──巴里·詹金斯 (id:1307235)

最佳摄影(提名)

最佳剪辑(提名)

最佳配乐(提名)

最佳音效(提名)

第32届美国独立精神奖 (2017)

最佳影片

最佳导演

└──巴里·詹金斯 (id:1307235)

最佳剧本

最佳摄影

最佳剪辑

罗伯特·奥特曼电影奖

└──巴里·詹金斯 (id:1307235)

第19届英国独立电影奖 (2016)

最佳外国独立电影

第26届哥谭独立电影奖 (2016)

最佳影片

最佳群戏

观众选择奖

最佳剧本

└──巴里·詹金斯 (id:1307235)

第17届美国电影学会奖 (2016)

年度佳片

第21届金卫星奖 (2017)

电影部门 最佳剧情片(提名)

电影部门 最佳导演(提名)

└──巴里·詹金斯 (id:1307235)

电影部门 最佳男配角(提名)

└──马赫沙拉·阿里 (id:1004702)

电影部门 最佳女配角

└──娜奥米·哈里斯 (id:1049542)

电影部门 最佳原创剧本

└──巴里·詹金斯 (id:1307235)

电影部门 最佳摄影(提名)

└──詹姆斯·拉克斯顿 (id:1289563)

电影部门 最佳剪辑(提名)

第51届美国国家影评人协会奖 (2017)

最佳影片

最佳导演

└──巴里·詹金斯 (id:1307235)

最佳男配角

└──马赫沙拉·阿里 (id:1004702)

最佳摄影

└──詹姆斯·拉克斯顿 (id:1289563)

第15届华盛顿影评人协会奖 (2016)

最佳影片(提名)

最佳导演(提名)

└──巴里·詹金斯 (id:1307235)

最佳男配角

└──马赫沙拉·阿里 (id:1004702)

最佳女配角(提名)

└──娜奥米·哈里斯 (id:1049542)

最佳原创剧本(提名)

最佳群戏(提名)

最佳摄影(提名)

最佳剪辑(提名)

最佳原创配乐(提名)

第37届伦敦影评人协会奖 (2017)

年度电影(提名)

年度导演(提名)

└──巴里·詹金斯 (id:1307235)

年度编剧(提名)

└──巴里·詹金斯 (id:1307235)

年度男配角

└──马赫沙拉·阿里 (id:1004702)

年度女配角

└──娜奥米·哈里斯 (id:1049542)

第37届波士顿影评人协会奖 (2016)

最佳男配角

└──马赫沙拉·阿里 (id:1004702)

最佳群像表演

第42届洛杉矶影评人协会奖 (2016)

最佳影片

最佳导演

└──巴里·詹金斯 (id:1307235)

最佳男配角

└──马赫沙拉·阿里 (id:1004702)

最佳摄影

└──詹姆斯·拉克斯顿 (id:1289563)

第29届芝加哥影评人协会奖 (2016)

最佳影片

最佳导演

└──巴里·詹金斯 (id:1307235)

最佳男配角

└──马赫沙拉·阿里 (id:1004702)

最佳男配角(提名)

└──崔凡特·罗兹 (id:1340760)

最佳女配角(提名)

└──娜奥米·哈里斯 (id:1049542)

最佳原创剧本(提名)

└──巴里·詹金斯 (id:1307235)

最佳摄影(提名)

└──詹姆斯·拉克斯顿 (id:1289563)

最佳剪辑(提名)

最佳原创配乐(提名)

└──尼古拉斯·布里特尔 (id:1369634)

最具潜力演员(提名)

└──崔凡特·罗兹 (id:1340760)

第20届美国在线影评人协会奖 (2017)

最佳影片

最佳导演

└──巴里·詹金斯 (id:1307235)

最佳男配角

└──马赫沙拉·阿里 (id:1004702)

最佳女配角

└──娜奥米·哈里斯 (id:1049542)

最佳改编剧本(提名)

最佳剪辑(提名)

最佳摄影(提名)

└──詹姆斯·拉克斯顿 (id:1289563)

第4届豆瓣电影年度榜单 (2017)

最受关注的非院线电影(提名)

年度LGBT电影(提名)

2月最受关注电影(提名)

第3届豆瓣电影年度榜单 (2016)

2016-2017北美颁奖季热门佳片(提名)

  1. ##### MediaInfo ######

  2. General

  3. Unique ID : 170205296642244681302228495697187864284 (0x800C59061F2DBD6FBC001CA4332E7EDC)

  4. Complete name : Moonlight.2016.BluRay.1080p.x265.10bit-MiniHD.mkv

  5. Format : Matroska

  6. Format version : Version 4

  7. File size : 2.87 GiB

  8. Duration : 1 h 50 min

  9. Overall bit rate : 3 707 kb/s

  10. Encoded date : UTC 2017-02-24 08:42:19

  11. Writing application : mkvmerge v9.7.1 ('Pandemonium') 64bit

  12. Writing library : libebml v1.3.4 + libmatroska v1.4.5

  13. Video

  14. ID : 1

  15. Format : HEVC

  16. Format/Info : High Efficiency Video Coding

  17. Format profile : Main [email protected]@Main

  18. Codec ID : V_MPEGH/ISO/HEVC

  19. Duration : 1 h 50 min

  20. Bit rate : 2 994 kb/s

  21. Width : 1 920 pixels

  22. Height : 808 pixels

  23. Display aspect ratio : 2.40:1

  24. Frame rate mode : Constant

  25. Frame rate : 23.976 (24000/1001/53354) FPS

  26. Color space : YUV

  27. Chroma subsampling : 4:2:0

  28. Bit depth : 10 bits

  29. Bits/(Pixel*Frame) : 0.080

  30. Stream size : 2.32 GiB (81%)

  31. Writing library : x265 2.3+7-c15f8bce9f4b:[Windows][GCC 6.3.0][64 bit] 10bit

  32. Encoding settings : cpuid=533541173503 / frame-threads=6 / numa-pools=36 / wpp / no-pmode / no-pme / no-psnr / no-ssim / log-level=2 / input-csp=1 / input-res=1920x808 / interlace=0 / total-frames=159604 / level-idc=0 / high-tier=1 / uhd-bd=0 / ref=5 / no-allow-non-conformance / no-repeat-headers / annexb / no-aud / no-hrd / info / hash=0 / no-temporal-layers / no-open-gop / min-keyint=1 / keyint=360 / bframes=8 / b-adapt=2 / b-pyramid / bframe-bias=0 / rc-lookahead=60 / lookahead-slices=4 / NTMzNTQ=uuDQuD2mJt9fsCf / scenecut=40 / no-intra-refresh / ctu=32 / min-cu-size=8 / rect / no-amp / max-tu-size=16 / tu-inter-depth=2 / tu-intra-depth=2 / limit-tu=0 / rdoq-level=2 / dynamic-rd=0.00 / signhide / no-tskip / nr-intra=0 / nr-inter=0 / no-constrained-intra / no-strong-intra-smoothing / max-merge=3 / limit-refs=1 / limit-modes / me=3 / subme=5 / merange=25 / temporal-mvp / weightp / weightb / no-analyze-src-pics / deblock=-1:-1 / no-sao / no-sao-non-deblock / rd=4 / no-early-skip / rskip / no-fast-intra / no-tskip-fast / no-cu-lossless / b-intra / rdpenalty=1 / psy-rd=0.00 / psy-rdoq=5.00 / no-rd-refine / analysis-mode=0 / no-lossless / cbqpoffs=-2 / crqpoffs=-2 / rc=crf / crf=20.0 / qcomp=0.65 / qpstep=4 / stats-write=0 / stats-read=0 / ipratio=1.40 / pbratio=1.20 / aq-mode=2 / aq-strength=0.80 / cutree / zone-count=0 / no-strict-cbr / qg-size=16 / no-rc-grain / qpmax=69 / qpmin=0 / sar=0 / overscan=0 / videoformat=5 / range=0 / colorprim=1 / transfer=2 / colormatrix=2 / chromaloc=0 / display-window=0 / max-cll=0,0 / min-luma=0 / max-luma=1023 / log2-max-poc-lsb=8 / vui-timing-info / vui-hrd-info / slices=1 / opt-qp-pps / opt-ref-list-length-pps / no-multi-pass-opt-rps / scenecut-bias=0.05 / no-opt-cu-delta-qp / no-aq-motion / no-hdr / no-hdr-opt / Capture-colorprim=3

  33. Default : Yes

  34. Forced : No

  35. Color range : Limited

  36. Color primaries : BT.709

  37. Audio

  38. ID : 2

  39. Format : AC-3

  40. Format/Info : Audio Coding 3

  41. Commercial name : Dolby Digital

  42. Codec ID : A_AC3

  43. Duration : 1 h 50 min

  44. Bit rate mode : Constant

  45. Bit rate : 640 kb/s

  46. Channel(s) : 6 channels

  47. Channel layout : L R C LFE Ls Rs

  48. Sampling rate : 48.0 kHz

  49. Frame rate : 31.250 FPS (1536 SPF)

  50. Compression mode : Lossy

  51. Stream size : 508 MiB (17%)

  52. Language : English

  53. Service kind : Complete Main

  54. Default : Yes

  55. Forced : No

  56. Text #1

  57. ID : 3

  58. Format : PGS

  59. Muxing mode : zlib

  60. Codec ID : S_HDMV/PGS

  61. Codec ID/Info : Picture based subtitle format used on BDs/HD-DVDs

  62. Language : English

  63. Default : Yes

  64. Forced : No

  65. Text #2

  66. ID : 4

  67. Format : PGS

  68. Muxing mode : zlib

  69. Codec ID : S_HDMV/PGS

  70. Codec ID/Info : Picture based subtitle format used on BDs/HD-DVDs

  71. Language : Chinese

  72. Default : No

  73. Forced : No

  74. Text #3

  75. ID : 5

  76. Format : PGS

  77. Muxing mode : zlib

  78. Codec ID : S_HDMV/PGS

  79. Codec ID/Info : Picture based subtitle format used on BDs/HD-DVDs

  80. Language : Chinese

  81. Default : No

  82. Forced : No

  83. Text #4

  84. ID : 6

  85. Format : PGS

  86. Muxing mode : zlib

  87. Codec ID : S_HDMV/PGS

  88. Codec ID/Info : Picture based subtitle format used on BDs/HD-DVDs

  89. Language : Chinese

  90. Default : No

  91. Forced : No

  92. Text #5

  93. ID : 7

  94. Format : PGS

  95. Muxing mode : zlib

  96. Codec ID : S_HDMV/PGS

  97. Codec ID/Info : Picture based subtitle format used on BDs/HD-DVDs

  98. Language : Chinese

  99. Default : No

  100. Forced : No

  101. Menu

  102. 00:00:00.000 : en:Chapter 01

  103. 00:05:42.759 : en:Chapter 02

  104. 00:13:16.712 : en:Chapter 03

  105. 00:21:17.609 : en:Chapter 04

  106. 00:30:04.385 : en:Chapter 05

  107. 00:36:04.161 : en:Chapter 06

  108. 00:43:28.147 : en:Chapter 07

  109. 00:49:07.069 : en:Chapter 08

  110. 00:57:20.144 : en:Chapter 09

  111. 01:03:37.146 : en:Chapter 10

  112. 01:08:31.982 : en:Chapter 11

  113. 01:15:25.312 : en:Chapter 12

  114. 01:21:03.942 : en:Chapter 13

  115. 01:27:03.634 : en:Chapter 14

  116. 01:36:01.463 : en:Chapter 15

  117. 01:40:01.703 : en:Chapter 16


复制代码



文件下载


除非特别注明,本文『月光男孩[中英字幕].Moonlight.2016.BluRay.1080p.x265.10bit-MiniHD 2.88GB』来源于互联网机器人自动抓取,非本站原创。 浮游电影网不对本文拥有版权,如有侵犯,请联系邮箱:fuyouu#yandex.com[#换成@]投诉。我们会在15个工作日内删除。 但烦请转载时请标明出处:“本文转载于『浮游电影网』,原文地址:https://www.fuyouu.com/22083.html

评论吧骚年!

发表你的见解   

昵称*

E-mail*(建议输入,以便收到博主回复的提示邮件)

验证码*

您可以使用eMule或eMule Mod(Windows)、aMule(Win、Linux、Mac)等软件下载eD2k链接。。
eMule收藏集(.emulecollection)文件是您选中的所有链接的列表文件。eMule可以直接下载它们。
按住SHIFT键选择可以选中多个选择框。
可用文件名和大小选择器来选择文件。
文件名选择器帮您根据文件名称或后缀来选择文件。不分大小写。
符号使用:
和:空格( )、+
不包含:-
或:|
转义:一对英文引号("");
匹配开头:^
匹配结尾:$
例如:
选中所有名称中包含有“eMule”或“0.49c”字眼,但不包含有“exe”字眼的:emule|0.49c -exe
选中所有名称的开头是“eMule”,结尾是“0.49c”的:^emule 0.49c$
选中所有名称中带有“eMule 0.49c”的(必须是“eMule 0.49c”,中间没有别的字符,不能是“eMule fake 0.49c”),需要转义:"emule 0.49c"
大小选择器帮您根据文件大小选择文件。