当前位置: 首页 >> 海外电影 >> 缩水情人梦[中英字幕].Up.For.Love.2016.BluRay.1080p.x265.10bit-MiniHD 2.03GB >> 正文

缩水情人梦[中英字幕].Up.For.Love.2016.BluRay.1080p.x265.10bit-MiniHD 2.03GB

2022年05月12日 22:47:21     电影发布:来源于网络     电影分类:海外电影     评论(0)    

◎译 名 缩水情人梦 / 我的哈比情人(台) / 缩水情人梦(港) / 最萌身高差 / Up for Love

◎片 名 Un homme à la hauteur

◎年 代 2016

◎产 地 法国

◎类 别 喜剧 / 爱情

◎语 言 法语 / 英语

◎上映日期 2016-05-04(法国)

◎IMDb链接 https://www.imdb.com/title/tt4699388/

◎豆瓣评分 6.8/10 (4420人评价)

◎豆瓣链接 https://movie.douban.com/subject/26638831/

◎片 长 98分钟

◎导 演 洛朗·蒂拉尔 Laurent Tirard (id:1274917)

◎编 剧 马科斯·卡内瓦莱 Marcos Carnevale (id:1050863)

洛朗·蒂拉尔 Laurent Tirard (id:1274917)

格雷古瓦·维涅隆 Grégoire Vigneron (id:1274924)

◎演 员 让·杜雅尔丹 Jean Dujardin (id:1018213)

维尔日妮·埃菲拉 Virginie Efira (id:1187894)

塞德里克·康 Cédric Kahn (id:1018714)

凯撒·东布瓦 César Domboy (id:1255971)

克里斯蒂安·妮科尼尔 Christiane Conil (id:1363401)

埃里克·博格 Eric Berger (id:1066172)

马里亚姆·特凯亚 Myriam Teka?a (id:1321696)

杰弗瑞·古艾 Geoffrey Cou?t (id:1360793)

◎简 介

戴安(维吉妮·艾菲拉 Virginie Efira 饰)刚刚结束了一段失败的婚姻,虽然感情不顺,但戴安拥有美丽的外貌,幽默的个性,开朗的性格,所有人都相信,她一定能够遇到另一段美好的爱情,对此,戴安也做足了心里建设,自信满满。

某日,戴安稀里糊涂的弄丢了手机,一位名叫亚历山大(让·杜雅尔丹 Jean Dujardin 饰)的男子见到了她的手机,联系她想要将手机归还。在电话里温文尔雅非常绅士的亚历山大一下子就吸引了戴安的注意,她觉得这整件事情就仿佛一个美好爱情故事的完美开端。然而,当戴安亲眼见到亚历山大时,才发现对方的身高竟然比自己矮一大截,戴安能否接受这身高上的巨大差距呢?

  1. ##### MediaInfo ######

  2. General

  3. Unique ID : 221181002970590401465975938887154613057 (0xA665E963898200889C2A07AAA69B3B41)

  4. Complete name : Up.For.Love.2016.BluRay.1080p.x265.10bit-MiniHD.mkv

  5. Format : Matroska

  6. Format version : Version 4

  7. File size : 2.03 GiB

  8. Duration : 1 h 37 min

  9. Overall bit rate : 2 967 kb/s

  10. Encoded date : UTC 2017-01-25 07:23:26

  11. Writing application : mkvmerge v9.7.1 ('Pandemonium') 64bit

  12. Writing library : libebml v1.3.4 + libmatroska v1.4.5

  13. Video

  14. ID : 1

  15. Format : HEVC

  16. Format/Info : High Efficiency Video Coding

  17. Format profile : Main [email protected]@Main

  18. Codec ID : V_MPEGH/ISO/HEVC

  19. Duration : 1 h 37 min

  20. Bit rate : 2 268 kb/s

  21. Width : 1 920 pixels

  22. Height : 800 pixels

  23. Display aspect ratio : 2.40:1

  24. Frame rate mode : Constant

  25. Frame rate : 24.000 FPS

  26. Color space : YUV

  27. Chroma subsampling : 4:2:0

  28. Bit depth : 10 bits

  29. Bits/(Pixel*Frame) : 0.062

  30. Stream size : 1.55 GiB (76%)

  31. Writing library : x265 2.2+22-20217c8af8ac:[Windows][GCC 6.2.0][64 bit] 10bit

  32. Encoding settings : cpuid=533541173503 / frame-threads=6 / numa-pools=36 / wpp / no-pmode / no-pme / no-psnr / no-ssim / log-level=2 / input-csp=1 / input-res=1920x800 / interlace=0 / total-frames=141032 / level-idc=0 / high-tier=1 / uhd-bd=0 / ref=5 / no-allow-non-conformance / no-repeat-headers / annexb / no-aud / no-hrd / info / hash=0 / no-temporal-layers / no-open-gop / min-keyint=1 / keyint=360 / bframes=8 / b-adapt=2 / b-pyramid / bframe-bias=0 / rc-lookahead=60 / lookahead-slices=4 / NTMzNTQ=uuDQuD2mJt9fsCf / scenecut=40 / no-intra-refresh / ctu=32 / min-cu-size=8 / rect / no-amp / max-tu-size=16 / tu-inter-depth=2 / tu-intra-depth=2 / limit-tu=0 / rdoq-level=2 / signhide / no-tskip / nr-intra=0 / nr-inter=0 / no-constrained-intra / no-strong-intra-smoothing / max-merge=3 / limit-refs=3 / limit-modes / me=3 / subme=5 / merange=25 / temporal-mvp / weightp / weightb / no-analyze-src-pics / deblock=-1:-1 / no-sao / no-sao-non-deblock / rd=4 / no-early-skip / rskip / no-fast-intra / no-tskip-fast / no-cu-lossless / b-intra / rdpenalty=1 / psy-rd=2.00 / psy-rdoq=5.00 / no-rd-refine / analysis-mode=0 / no-lossless / cbqpoffs=-1 / crqpoffs=-1 / rc=crf / crf=20.0 / qcomp=0.65 / qpstep=4 / stats-write=0 / stats-read=0 / ipratio=1.40 / pbratio=1.30 / aq-mode=3 / aq-strength=0.80 / cutree / zone-count=0 / no-strict-cbr / qg-size=16 / no-rc-grain / qpmax=69 / qpmin=0 / sar=0 / overscan=0 / videoformat=5 / range=0 / colorprim=1 / transfer=2 / colormatrix=2 / chromaloc=0 / display-window=0 / max-cll=0,0 / min-luma=0 / max-luma=1023 / log2-max-poc-lsb=8 / vui-timing-info / vui-hrd-info / slices=1 / opt-qp-pps / opt-ref-list-length-pps / no-multi-pass-opt-rps / scenecut-bias=0.05 / no-opt-cu-delta-qp / no-aq-motion

  33. Default : Yes

  34. Forced : No

  35. Color range : Limited

  36. Color primaries : BT.709

  37. Audio

  38. ID : 2

  39. Format : AC-3

  40. Format/Info : Audio Coding 3

  41. Commercial name : Dolby Digital

  42. Codec ID : A_AC3

  43. Duration : 1 h 37 min

  44. Bit rate mode : Constant

  45. Bit rate : 640 kb/s

  46. Channel(s) : 6 channels

  47. Channel layout : L R C LFE Ls Rs

  48. Sampling rate : 48.0 kHz

  49. Frame rate : 31.250 FPS (1536 SPF)

  50. Compression mode : Lossy

  51. Stream size : 448 MiB (22%)

  52. Language : French

  53. Service kind : Complete Main

  54. Default : Yes

  55. Forced : No

  56. Text #1

  57. ID : 3

  58. Format : PGS

  59. Muxing mode : zlib

  60. Codec ID : S_HDMV/PGS

  61. Codec ID/Info : Picture based subtitle format used on BDs/HD-DVDs

  62. Language : French

  63. Default : Yes

  64. Forced : No

  65. Text #2

  66. ID : 4

  67. Format : PGS

  68. Muxing mode : zlib

  69. Codec ID : S_HDMV/PGS

  70. Codec ID/Info : Picture based subtitle format used on BDs/HD-DVDs

  71. Language : Chinese

  72. Default : No

  73. Forced : No

  74. Text #3

  75. ID : 5

  76. Format : PGS

  77. Muxing mode : zlib

  78. Codec ID : S_HDMV/PGS

  79. Codec ID/Info : Picture based subtitle format used on BDs/HD-DVDs

  80. Language : Chinese

  81. Default : No

  82. Forced : No

  83. Text #4

  84. ID : 6

  85. Format : PGS

  86. Muxing mode : zlib

  87. Codec ID : S_HDMV/PGS

  88. Codec ID/Info : Picture based subtitle format used on BDs/HD-DVDs

  89. Language : Chinese

  90. Default : No

  91. Forced : No

  92. Text #5

  93. ID : 7

  94. Format : PGS

  95. Muxing mode : zlib

  96. Codec ID : S_HDMV/PGS

  97. Codec ID/Info : Picture based subtitle format used on BDs/HD-DVDs

  98. Language : Chinese

  99. Default : No

  100. Forced : No

  101. Text #6

  102. ID : 8

  103. Format : PGS

  104. Muxing mode : zlib

  105. Codec ID : S_HDMV/PGS

  106. Codec ID/Info : Picture based subtitle format used on BDs/HD-DVDs

  107. Language : English

  108. Default : No

  109. Forced : No

  110. Menu

  111. 00:00:00.000 : en:Chapter 01

  112. 00:08:20.625 : en:Chapter 02

  113. 00:16:43.083 : en:Chapter 03

  114. 00:23:20.416 : en:Chapter 04

  115. 00:33:15.458 : en:Chapter 05

  116. 00:41:44.958 : en:Chapter 06

  117. 00:50:28.125 : en:Chapter 07

  118. 00:57:14.833 : en:Chapter 08

  119. 01:06:03.416 : en:Chapter 09

  120. 01:13:10.750 : en:Chapter 10

  121. 01:23:15.625 : en:Chapter 11

  122. 01:28:05.708 : en:Chapter 12

  123. 01:37:56.333 : en:Chapter 13


复制代码



文件下载


除非特别注明,本文『缩水情人梦[中英字幕].Up.For.Love.2016.BluRay.1080p.x265.10bit-MiniHD 2.03GB』来源于互联网机器人自动抓取,非本站原创。 浮游电影网不对本文拥有版权,如有侵犯,请联系邮箱:fuyouu#yandex.com[#换成@]投诉。我们会在15个工作日内删除。 但烦请转载时请标明出处:“本文转载于『浮游电影网』,原文地址:https://www.fuyouu.com/22082.html

评论吧骚年!

发表你的见解   

昵称*

E-mail*(建议输入,以便收到博主回复的提示邮件)

验证码*

您可以使用eMule或eMule Mod(Windows)、aMule(Win、Linux、Mac)等软件下载eD2k链接。。
eMule收藏集(.emulecollection)文件是您选中的所有链接的列表文件。eMule可以直接下载它们。
按住SHIFT键选择可以选中多个选择框。
可用文件名和大小选择器来选择文件。
文件名选择器帮您根据文件名称或后缀来选择文件。不分大小写。
符号使用:
和:空格( )、+
不包含:-
或:|
转义:一对英文引号("");
匹配开头:^
匹配结尾:$
例如:
选中所有名称中包含有“eMule”或“0.49c”字眼,但不包含有“exe”字眼的:emule|0.49c -exe
选中所有名称的开头是“eMule”,结尾是“0.49c”的:^emule 0.49c$
选中所有名称中带有“eMule 0.49c”的(必须是“eMule 0.49c”,中间没有别的字符,不能是“eMule fake 0.49c”),需要转义:"emule 0.49c"
大小选择器帮您根据文件大小选择文件。