当前位置: 首页 >> 欧美电影 >> 最后的武士[国英多音轨/中英字幕].The.Last.Samurai.2003.BluRay.1080p.VC-1.TrueHD.5.1 5.63GB >> 正文

最后的武士[国英多音轨/中英字幕].The.Last.Samurai.2003.BluRay.1080p.VC-1.TrueHD.5.1 5.63GB

2022年05月12日 22:45:25     电影发布:来源于网络     电影分类:欧美电影     评论(0)    

◎译 名 最后的武士 / 最后武士(港) / 末代武士(台) / The Last Samurai: Bushidou

◎片 名 The Last Samurai

◎年 代 2003

◎产 地 美国 / 新西兰 / 日本

◎类 别 剧情 / 动作 / 历史 / 战争 / 冒险

◎语 言 英语 / 日语

◎上映日期 2003-12-05

◎IMDb链接 https://www.imdb.com/title/tt0325710/

◎豆瓣评分 7.9/10 (71512人评价)

◎豆瓣链接 https://movie.douban.com/subject/1299383/

◎片 长 154 分钟

◎导 演 爱德华·兹威克 Edward Zwick (id:1027877)

◎编 剧 约翰·洛根 John Logan (id:1118279)

爱德华·兹威克 Edward Zwick (id:1027877)

马歇尔·赫斯科维兹 Marshall Herskovitz (id:1032607)

◎演 员 汤姆·克鲁斯 Tom Cruise (id:1054435)

渡边谦 Ken Watanabe (id:1027181)

蒂莫西·斯波 Timothy Spall (id:1031872)

比利·康诺利 Billy Connolly (id:1036414)

托尼·戈德温 Tony Goldwyn (id:1048151)

真田广之 Hiroyuki Sanada (id:1027879)

小雪 Koyuki (id:1036610)

原田真人 Masato Harada (id:1013702)

威廉·阿瑟东 William Atherton (id:1022729)

二阶堂智 Satoshi Nikaido (id:1000932)

中村七之助 Shichinosuke Nakamura (id:1045437)

沙恩·科苏奇 Shane Kosugi (id:1106384)

约翰·科耶马 John Koyama (id:1114607)

大立雅史 Masashi Odate (id:1344234)

查德·林德伯格 Chad Lindberg (id:1116028)

斯科特·威尔森 Scott Wilson (id:1002813)

松崎悠希 Yuki Matsuzaki (id:1027376)

池松壮亮 Sosuke Ikematsu (id:1009895)

福本清三 Seizo Fukumoto (id:1008135)

伊川东吾 Togo Igawa (id:1027483)

菅田俊 Shun Sugata (id:1008079)

小山田新 Shin Koyamada (id:1032388)

张鹏 Peng Zhang (id:1307141)

汤姆·克鲁斯 Tom Cruise (id:1054435)

马歇尔·赫斯科维兹 Marshall Herskovitz (id:1032607)

文森特·沃德 Vincent Ward (id:1005091)

保拉·瓦格纳 Paula Wagner (id:1036991)

爱德华·兹威克 Edward Zwick (id:1027877)

迈克尔·多文 Michael Doven (id:1006119)

奈良桥阳子 Y?ko Narahashi (id:1292910)

特德·菲尔德 Ted Field (id:1018546)

Richard Solomon Richard Solomon (id:1298034)

汉斯·季默 Hans Zimmer (id:1054386)

约翰·托尔 John Toll (id:1276189)

斯蒂夫·罗森布朗 Steven Rosenblum (id:1296094)

维克托·波伊斯 Victor Du Bois (id:1282740)

格蕾琴·劳 Gretchen Rau (id:1147400)

克里斯托弗·布里安-莫尔 Christopher Burian-Mohr (id:1279638)

杰西·冈作 Jess Gonchor (id:1010149)

金·辛克莱尔 Kim Sinclair (id:1010005)

莉莉·基尔弗特 Lilly Kilvert (id:1288534)

恩吉拉·迪克森 Ngila Dickson (id:1282410)

康纳·奥沙利文 Conor O'Sullivan (id:1293444)

金伯利·斯皮特里 Kimberley Spiteri (id:1298179)

里克·斯特拉顿 Rick Stratton (id:1298538)

迈克尔·杰曼 Michael Germain (id:1284741)

洛丽雅·谢泼德 Loulia Sheppard (id:1297417)

丹妮丝·卡姆 Denise Kum (id:1303277)

Tina Harrelson Tina Harrelson (id:1286084)

Stephen Rose Stephen Rose (id:1296050)

丹尼尔·帕克 Daniel Parker (id:1293974)

Kenny Myers Kenny Myers (id:1292824)

Marc Boyle Marc Boyle (id:1303138)

Davina Lamont Davina Lamont (id:1304087)

邓肯·贾曼 Duncan Jarman (id:1287610)

Ron Snyder Ron Snyder (id:1160389)

Teressa Hill Teressa Hill (id:1161004)

Martin Kopulsky Martin Kopulsky (id:1112366)

Russell Latham Russell Latham (id:1103241)

格雷格·尼尔森 Greg Nelson (id:1293037)

Elaina P. Schulman Elaina P. Schulman (id:1145928)

洛伊斯·布尔维尔 Lois Burwell (id:1276653)

Karen Asano-Myers Karen Asano-Myers (id:1277472)

Michael F. Blake Michael F. Blake (id:1278749)

Janice Alexander Janice Alexander (id:1276985)

Andrew Ward Andrew Ward (id:1166225)

David Williams David Williams (id:1215349)

杰克·斯坦伯格 Jack Steinberg (id:1149655)

Guy Campbell Guy Campbell (id:1279963)

尼克·鲍威尔 Nick Powell (id:1294826)

雷·麦金太尔 Ray McIntyre Jr. (id:1291625)

吉姆·戈尔曼 Jim Gorman (id:1285203)

蒂姆·克罗斯比 Tim Crosbie (id:1281511)

James Coulter James Coulter (id:1281373)

约翰·科茨 John Coats (id:1280929)

Thomas Boland Thomas Boland (id:1278906)

Tim Kings-Lynne (id:1220000)

Brian Jochum Brian Jochum (id:1102751)

洛朗·拉维尼 Laurent Lavigne (id:1207972)

Dave Jerrard Dave Jerrard (id:1206213)

克莱格·巴朗 Craig Barron (id:1277981)

Patrick Murphy Patrick Murphy (id:1129780)

George Macri George Macri (id:1124081)

Don Myers Don Myers (id:1126882)

威廉·梅萨 William Mesa (id:1291905)

Chris Stoski Chris Stoski (id:1303591)

Glenn Cotter Glenn Cotter (id:1302309)

Don Waller Don Waller (id:1300335)

Jeffrey A. Okun Jeffrey A. Okun (id:1005539)

林肯·库普切克 Lincoln Kupchak (id:1013029)

班诺特·吉拉尔 Benoit Girard (id:1308287)

汤米·陈 Tommy Tran (id:1299471)

罗恩·克拉布 Ron Crabb (id:1310401)

塔米·萨顿 Tammy Sutton (id:1298686)

Mark Spatny Mark Spatny (id:1298117)

Adam Paschke Adam Paschke (id:1307929)

Ken Rogerson Ken Rogerson (id:1295933)

Justin Mitchell Justin Mitchell (id:1292234)

杰罗姆·莫林 Jerome Morin (id:1307280)

◎简 介

美国内战结束的十年后,当年的南北战争英雄纳森(汤姆?克鲁斯 Tom Cruise)因无所事事而终日酗酒。一次偶然的机会,他结识了来美做生意的日本商人。纳森的彪炳战绩令对方刮目相看。此时正值明治维新时期,日本天皇意欲训练一支现代化的作战部队,于是纳森被请到了日本。

日本很多武士都不欢迎纳森的到来,他们坚决不肯抛弃传统的武士道精神,对将武士西化十分反感。他们在首领乌吉奥(真田广之 饰)的带领下举刀起义,躲到了一条偏僻的小山村自立为政。天皇大怒,派纳森率领他训练出来的现代化军队去围剿叛变武士。岂料皇军全军覆没,纳森亦成为了阶下囚……

◎获奖情况 (共9项)

第76届奥斯卡金像奖 (2004)

最佳男配角(提名)

└──渡边谦 (id:1027181)

最佳混音(提名)

最佳艺术指导(提名)

最佳服装设计(提名)

└──恩吉拉·迪克森 (id:1282410)

第61届金球奖 (2004)

电影类 剧情片最佳男主角(提名)

└──汤姆·克鲁斯 (id:1054435)

电影类 最佳男配角(提名)

└──渡边谦 (id:1027181)

电影类 最佳原创配乐(提名)

└──汉斯·季默 (id:1054386)

第28届日本电影学院奖 (2005)

最佳外语片

第4届美国电影学会奖 (2003)

年度佳片

  1. ##### MediaInfo ######

  2. General

  3. Unique ID : 205626605514633053386310302771458028126 (0x9AB23E629EE9F2959592524DA67B325E)

  4. Complete name : The.Last.Samurai.2003.Blu-ray.1080p.VC-1.TrueHD.5.1.mkv

  5. Format : Matroska

  6. Format version : Version 4

  7. File size : 5.63 GiB

  8. Duration : 2 h 34 min

  9. Overall bit rate : 5 226 kb/s

  10. Encoded date : UTC 2017-03-04 14:27:30

  11. Writing application : mkvmerge v9.7.1 ('Pandemonium') 64bit

  12. Writing library : libebml v1.3.4 + libmatroska v1.4.5

  13. Video

  14. ID : 1

  15. Format : HEVC

  16. Format/Info : High Efficiency Video Coding

  17. Format profile : Main [email protected]@Main

  18. Codec ID : V_MPEGH/ISO/HEVC

  19. Duration : 2 h 34 min

  20. Bit rate : 3 842 kb/s

  21. Width : 1 920 pixels

  22. Height : 792 pixels

  23. Display aspect ratio : 2.40:1

  24. Frame rate mode : Constant

  25. Frame rate : 23.976 (24000/1001/53354) FPS

  26. Color space : YUV

  27. Chroma subsampling : 4:2:0

  28. Bit depth : 10 bits

  29. Bits/(Pixel*Frame) : 0.105

  30. Stream size : 4.14 GiB (74%)

  31. Writing library : x265 2.3+7-c15f8bce9f4b:[Windows][GCC 6.3.0][64 bit] 10bit

  32. Encoding settings : cpuid=533541173503 / frame-threads=6 / numa-pools=36 / wpp / no-pmode / no-pme / no-psnr / no-ssim / log-level=2 / input-csp=1 / input-res=1920x792 / interlace=0 / total-frames=221808 / level-idc=0 / high-tier=1 / uhd-bd=0 / ref=5 / no-allow-non-conformance / no-repeat-headers / annexb / no-aud / no-hrd / info / hash=0 / no-temporal-layers / no-open-gop / min-keyint=1 / keyint=360 / bframes=8 / b-adapt=2 / b-pyramid / bframe-bias=0 / rc-lookahead=60 / lookahead-slices=4 / NTMzNTQ=uuDQuD2mJt9fsCf / scenecut=40 / no-intra-refresh / ctu=32 / min-cu-size=8 / rect / no-amp / max-tu-size=16 / tu-inter-depth=2 / tu-intra-depth=2 / limit-tu=0 / rdoq-level=2 / dynamic-rd=0.00 / signhide / no-tskip / nr-intra=0 / nr-inter=0 / no-constrained-intra / no-strong-intra-smoothing / max-merge=3 / limit-refs=2 / limit-modes / me=3 / subme=5 / merange=25 / temporal-mvp / weightp / weightb / no-analyze-src-pics / deblock=-1:-1 / no-sao / no-sao-non-deblock / rd=4 / no-early-skip / rskip / no-fast-intra / no-tskip-fast / no-cu-lossless / b-intra / rdpenalty=1 / psy-rd=0.00 / psy-rdoq=5.00 / no-rd-refine / analysis-mode=0 / no-lossless / cbqpoffs=-2 / crqpoffs=-2 / rc=crf / crf=20.0 / qcomp=0.70 / qpstep=4 / stats-write=0 / stats-read=0 / ipratio=1.40 / pbratio=1.30 / aq-mode=2 / aq-strength=0.80 / cutree / zone-count=0 / no-strict-cbr / qg-size=16 / no-rc-grain / qpmax=69 / qpmin=0 / sar=0 / overscan=0 / videoformat=5 / range=0 / colorprim=1 / transfer=2 / colormatrix=2 / chromaloc=0 / display-window=0 / max-cll=0,0 / min-luma=0 / max-luma=1023 / log2-max-poc-lsb=8 / vui-timing-info / vui-hrd-info / slices=1 / opt-qp-pps / opt-ref-list-length-pps / no-multi-pass-opt-rps / scenecut-bias=0.05 / no-opt-cu-delta-qp / no-aq-motion / no-hdr / no-hdr-opt / Capture-colorprim=3

  33. Default : Yes

  34. Forced : No

  35. Color range : Limited

  36. Color primaries : BT.709

  37. Audio #1

  38. ID : 2

  39. Format : AC-3

  40. Format/Info : Audio Coding 3

  41. Commercial name : Dolby Digital

  42. Codec ID : A_AC3

  43. Duration : 2 h 34 min

  44. Bit rate mode : Constant

  45. Bit rate : 640 kb/s

  46. Channel(s) : 6 channels

  47. Channel layout : L R C LFE Ls Rs

  48. Sampling rate : 48.0 kHz

  49. Frame rate : 31.250 FPS (1536 SPF)

  50. Compression mode : Lossy

  51. Stream size : 706 MiB (12%)

  52. Language : English

  53. Service kind : Complete Main

  54. Default : Yes

  55. Forced : No

  56. Audio #2

  57. ID : 3

  58. Format : AC-3

  59. Format/Info : Audio Coding 3

  60. Commercial name : Dolby Digital

  61. Codec ID : A_AC3

  62. Duration : 2 h 34 min

  63. Bit rate mode : Constant

  64. Bit rate : 640 kb/s

  65. Channel(s) : 6 channels

  66. Channel layout : L R C LFE Ls Rs

  67. Sampling rate : 48.0 kHz

  68. Frame rate : 31.250 FPS (1536 SPF)

  69. Compression mode : Lossy

  70. Stream size : 706 MiB (12%)

  71. Language : Chinese

  72. Service kind : Complete Main

  73. Default : No

  74. Forced : No

  75. Text #1

  76. ID : 4

  77. Format : PGS

  78. Muxing mode : zlib

  79. Codec ID : S_HDMV/PGS

  80. Codec ID/Info : Picture based subtitle format used on BDs/HD-DVDs

  81. Language : English

  82. Default : Yes

  83. Forced : No

  84. Text #2

  85. ID : 5

  86. Format : PGS

  87. Muxing mode : zlib

  88. Codec ID : S_HDMV/PGS

  89. Codec ID/Info : Picture based subtitle format used on BDs/HD-DVDs

  90. Language : Chinese

  91. Default : No

  92. Forced : No

  93. Text #3

  94. ID : 6

  95. Format : PGS

  96. Muxing mode : zlib

  97. Codec ID : S_HDMV/PGS

  98. Codec ID/Info : Picture based subtitle format used on BDs/HD-DVDs

  99. Language : Chinese

  100. Default : No

  101. Forced : No

  102. Menu

  103. 00:00:00.000 : en:Chapter 01

  104. 00:01:52.070 : en:Chapter 02

  105. 00:05:38.629 : en:Chapter 03

  106. 00:09:58.389 : en:Chapter 04

  107. 00:13:13.584 : en:Chapter 05

  108. 00:15:24.882 : en:Chapter 06

  109. 00:20:06.496 : en:Chapter 07

  110. 00:22:54.831 : en:Chapter 08

  111. 00:25:39.496 : en:Chapter 09

  112. 00:31:12.996 : en:Chapter 10

  113. 00:37:00.676 : en:Chapter 11

  114. 00:41:00.916 : en:Chapter 12

  115. 00:44:11.440 : en:Chapter 13

  116. 00:49:36.098 : en:Chapter 14

  117. 00:52:41.116 : en:Chapter 15

  118. 00:56:48.363 : en:Chapter 16

  119. 01:00:04.559 : en:Chapter 17

  120. 01:03:25.259 : en:Chapter 18

  121. 01:06:58.973 : en:Chapter 19

  122. 01:11:43.257 : en:Chapter 20

  123. 01:14:40.601 : en:Chapter 21

  124. 01:18:55.689 : en:Chapter 22

  125. 01:21:22.002 : en:Chapter 23

  126. 01:24:21.014 : en:Chapter 24

  127. 01:26:39.819 : en:Chapter 25

  128. 01:30:28.381 : en:Chapter 26

  129. 01:34:01.761 : en:Chapter 27

  130. 01:37:16.455 : en:Chapter 28

  131. 01:41:46.391 : en:Chapter 29

  132. 01:44:55.914 : en:Chapter 30

  133. 01:48:06.605 : en:Chapter 31

  134. 01:52:26.364 : en:Chapter 32

  135. 01:55:24.375 : en:Chapter 33

  136. 02:00:03.654 : en:Chapter 34

  137. 02:06:24.535 : en:Chapter 35

  138. 02:08:21.485 : en:Chapter 36

  139. 02:10:46.797 : en:Chapter 37

  140. 02:13:06.603 : en:Chapter 38

  141. 02:16:37.314 : en:Chapter 39

  142. 02:22:57.527 : en:Chapter 40

  143. 02:24:31.287 : en:Chapter 41


复制代码



文件下载


除非特别注明,本文『最后的武士[国英多音轨/中英字幕].The.Last.Samurai.2003.BluRay.1080p.VC-1.TrueHD.5.1 5.63GB』来源于互联网机器人自动抓取,非本站原创。 浮游电影网不对本文拥有版权,如有侵犯,请联系邮箱:fuyouu#yandex.com[#换成@]投诉。我们会在15个工作日内删除。 但烦请转载时请标明出处:“本文转载于『浮游电影网』,原文地址:https://www.fuyouu.com/22080.html

评论吧骚年!

发表你的见解   

昵称*

E-mail*(建议输入,以便收到博主回复的提示邮件)

验证码*

您可以使用eMule或eMule Mod(Windows)、aMule(Win、Linux、Mac)等软件下载eD2k链接。。
eMule收藏集(.emulecollection)文件是您选中的所有链接的列表文件。eMule可以直接下载它们。
按住SHIFT键选择可以选中多个选择框。
可用文件名和大小选择器来选择文件。
文件名选择器帮您根据文件名称或后缀来选择文件。不分大小写。
符号使用:
和:空格( )、+
不包含:-
或:|
转义:一对英文引号("");
匹配开头:^
匹配结尾:$
例如:
选中所有名称中包含有“eMule”或“0.49c”字眼,但不包含有“exe”字眼的:emule|0.49c -exe
选中所有名称的开头是“eMule”,结尾是“0.49c”的:^emule 0.49c$
选中所有名称中带有“eMule 0.49c”的(必须是“eMule 0.49c”,中间没有别的字符,不能是“eMule fake 0.49c”),需要转义:"emule 0.49c"
大小选择器帮您根据文件大小选择文件。