当前位置: 首页 >> 日韩电影 >> 昭和64年 后篇[中文字幕].64.Part.II.2016.BluRay.1080p.x265.10bit-MiniHD 2.62GB >> 正文

昭和64年 后篇[中文字幕].64.Part.II.2016.BluRay.1080p.x265.10bit-MiniHD 2.62GB

2022年05月12日 22:40:20     电影发布:来源于网络     电影分类:日韩电影     评论(0)    

◎译 名 昭和64年 后篇 / 64:史上最凶恶绑架撕票事件(台) / 黑暗之心后编

◎片 名 64 ロクヨン 後編

◎年 代 2016

◎产 地 日本

◎类 别 剧情 / 犯罪

◎语 言 日语

◎上映日期 2016-06-11(日本)

◎IMDb链接 https://www.imdb.com/title/tt4471634/

◎豆瓣评分 7.4/10 (6668人评价)

◎豆瓣链接 https://movie.douban.com/subject/26328483/

◎片 长 119分钟

◎导 演 濑濑敬久 Takahisa Zeze (id:1314621)

◎编 剧 横山秀夫 Hideo Yokoyama (id:1344630)

久松真一 Shin'ichi Hisamatsu (id:1358548)

濑濑敬久 Takahisa Zeze (id:1314621)

◎演 员 佐藤浩市 K?ichi Sat? (id:1037432)

绫野刚 G? Ayano (id:1314909)

荣仓奈奈 Nana Eikura (id:1006036)

永山瑛太 Eita (id:1037363)

三浦友和 Tomokazu Miura (id:1008191)

永濑正敏 Masatoshi Nagase (id:1010090)

吉冈秀隆 Hidetaka Yoshioka (id:1025610)

仲村亨 T?ru Nakamura (id:1050906)

椎名桔平 Kippei Shiina (id:1009777)

泷藤贤一 Kenichi Takito (id:1323403)

奥田瑛二 Eiji Okuda (id:1033105)

夏川结衣 Yui Natsukawa (id:1018741)

绪形直人 Naoto Ogata (id:1052447)

洼田正孝 Masataka Kubota (id:1314832)

赤井英和 Hidekazu Akai (id:1024308)

坂口健太郎 Kentaro Sakaguchi (id:1340281)

大塚弘太 Hirota Otsuka (id:1388851)

加藤虎之介 Toranosuke Kato (id:1408077)

大西信满 SHIMA OHNISHI (id:1324431)

渡边真起子 Makiko Watanabe (id:1051943)

三浦诚己 Masaki Miura (id:1043336)

菜叶菜 Nahana (id:1318924)

芳根京子 Ky?ko Yoshine (id:1348883)

柄本佑 Tasuku Emoto (id:1307243)

村松崇継 Takatsugu Muramatsu (id:1345774)

菊地健雄 Takeo Kikuchi (id:1362762)

◎简 介

由于当年办案人员的失误,导致绑匪关键性的电话没有被录下来。相关人员承担责任,警方高层则将其视为禁区只字不提。三上义信(佐藤浩市 饰)与媒体苦苦周旋的同时,竭尽全力试图打破警方的窠臼,同时针对当年的案件展开深入调查。而就在此时,某体育用品商店老板(绪形直人 饰)的女儿遭到绑架,相关手法居然与“64案件”完全一致!难不成是凶手再翻案?三上和同侪全力奔走,警方也投入大量人力展开追查,结果竟然发现令人难以置信的秘密。昭和天皇退出历史舞台,吸引了无数人的眼光。然而即使被时间的尘埃所掩埋,有些事、有些人终究会被人久久铭记……

本片根据横山秀夫的同名推理小说改编。

◎获奖情况 (共2项)

第40届日本电影学院奖 (2017)

最佳新人(提名)

└──坂口健太郎 (id:1340281)

第41届报知映画赏 (2016)

最佳男配角

└──绫野刚 (id:1314909)

  1. ##### MediaInfo ######

  2. General

  3. Unique ID : 210641288201199458054545797389966343287 (0x9E78095498DB0239BBF990F7849F7C77)

  4. Complete name : 64.Part.II.2016.BluRay.1080p.x265.10bit-MiniHD.mkv

  5. Format : Matroska

  6. Format version : Version 4

  7. File size : 2.62 GiB

  8. Duration : 1 h 58 min

  9. Overall bit rate : 3 151 kb/s

  10. Encoded date : UTC 2017-01-24 02:35:41

  11. Writing application : mkvmerge v9.7.1 ('Pandemonium') 64bit

  12. Writing library : libebml v1.3.4 + libmatroska v1.4.5

  13. Video

  14. ID : 1

  15. Format : HEVC

  16. Format/Info : High Efficiency Video Coding

  17. Format profile : Main [email protected]@Main

  18. Codec ID : V_MPEGH/ISO/HEVC

  19. Duration : 1 h 58 min

  20. Bit rate : 2 448 kb/s

  21. Width : 1 920 pixels

  22. Height : 804 pixels

  23. Display aspect ratio : 2.40:1

  24. Frame rate mode : Constant

  25. Frame rate : 23.976 (24000/1001/53354) FPS

  26. Color space : YUV

  27. Chroma subsampling : 4:2:0

  28. Bit depth : 10 bits

  29. Bits/(Pixel*Frame) : 0.066

  30. Stream size : 2.03 GiB (78%)

  31. Writing library : x265 2.2+5-e40db0bdde4a:[Windows][GCC 6.2.0][64 bit] 10bit

  32. Encoding settings : cpuid=533541173503 / frame-threads=6 / numa-pools=36 / wpp / no-pmode / no-pme / no-psnr / no-ssim / log-level=2 / input-csp=1 / input-res=1920x804 / interlace=0 / total-frames=170988 / level-idc=0 / high-tier=1 / uhd-bd=0 / ref=5 / no-allow-non-conformance / no-repeat-headers / annexb / no-aud / no-hrd / info / hash=0 / no-temporal-layers / no-open-gop / min-keyint=1 / keyint=360 / bframes=8 / b-adapt=2 / b-pyramid / bframe-bias=0 / rc-lookahead=60 / lookahead-slices=4 / NTMzNTQ=uuDQuD2mJt9fsCf / scenecut=40 / no-intra-refresh / ctu=32 / min-cu-size=8 / rect / no-amp / max-tu-size=16 / tu-inter-depth=2 / tu-intra-depth=2 / limit-tu=0 / rdoq-level=2 / signhide / no-tskip / nr-intra=0 / nr-inter=0 / no-constrained-intra / no-strong-intra-smoothing / max-merge=3 / limit-refs=3 / limit-modes / me=3 / subme=5 / merange=25 / temporal-mvp / weightp / weightb / no-analyze-src-pics / deblock=-1:-1 / no-sao / no-sao-non-deblock / rd=4 / no-early-skip / rskip / no-fast-intra / no-tskip-fast / no-cu-lossless / b-intra / rdpenalty=1 / psy-rd=2.00 / psy-rdoq=5.00 / no-rd-refine / analysis-mode=0 / no-lossless / cbqpoffs=-2 / crqpoffs=-2 / rc=crf / crf=20.0 / qcomp=0.65 / qpstep=4 / stats-write=0 / stats-read=0 / ipratio=1.40 / pbratio=1.30 / aq-mode=3 / aq-strength=0.80 / cutree / zone-count=0 / no-strict-cbr / qg-size=16 / no-rc-grain / qpmax=69 / qpmin=0 / sar=0 / overscan=0 / videoformat=5 / range=0 / colorprim=1 / transfer=2 / colormatrix=2 / chromaloc=0 / display-window=0 / max-cll=0,0 / min-luma=0 / max-luma=1023 / log2-max-poc-lsb=8 / vui-timing-info / vui-hrd-info / slices=1 / opt-qp-pps / opt-ref-list-length-pps / no-multi-pass-opt-rps / scenecut-bias=0.05 / no-opt-cu-delta-qp

  33. Default : Yes

  34. Forced : No

  35. Color range : Limited

  36. Color primaries : BT.709

  37. Audio

  38. ID : 2

  39. Format : AC-3

  40. Format/Info : Audio Coding 3

  41. Commercial name : Dolby Digital

  42. Codec ID : A_AC3

  43. Duration : 1 h 58 min

  44. Bit rate mode : Constant

  45. Bit rate : 640 kb/s

  46. Channel(s) : 6 channels

  47. Channel layout : L R C LFE Ls Rs

  48. Sampling rate : 48.0 kHz

  49. Frame rate : 31.250 FPS (1536 SPF)

  50. Compression mode : Lossy

  51. Stream size : 544 MiB (20%)

  52. Language : Japanese

  53. Service kind : Complete Main

  54. Default : Yes

  55. Forced : No

  56. Text #1

  57. ID : 3

  58. Format : PGS

  59. Muxing mode : zlib

  60. Codec ID : S_HDMV/PGS

  61. Codec ID/Info : Picture based subtitle format used on BDs/HD-DVDs

  62. Language : Japanese

  63. Default : Yes

  64. Forced : No

  65. Text #2

  66. ID : 4

  67. Format : PGS

  68. Muxing mode : zlib

  69. Codec ID : S_HDMV/PGS

  70. Codec ID/Info : Picture based subtitle format used on BDs/HD-DVDs

  71. Language : Chinese

  72. Default : No

  73. Forced : No

  74. Text #3

  75. ID : 5

  76. Format : PGS

  77. Muxing mode : zlib

  78. Codec ID : S_HDMV/PGS

  79. Codec ID/Info : Picture based subtitle format used on BDs/HD-DVDs

  80. Language : Chinese

  81. Default : No

  82. Forced : No

  83. Menu

  84. 00:00:00.000 : en:Chapter 01

  85. 00:05:19.986 : en:Chapter 02

  86. 00:11:15.966 : en:Chapter 03

  87. 00:18:11.924 : en:Chapter 04

  88. 00:23:44.798 : en:Chapter 05

  89. 00:34:16.554 : en:Chapter 06

  90. 00:39:24.362 : en:Chapter 07

  91. 00:45:23.262 : en:Chapter 08

  92. 00:53:32.209 : en:Chapter 09

  93. 01:00:57.070 : en:Chapter 10

  94. 01:14:14.241 : en:Chapter 11

  95. 01:20:48.051 : en:Chapter 12

  96. 01:25:43.388 : en:Chapter 13

  97. 01:40:10.879 : en:Chapter 14

  98. 01:49:34.943 : en:Chapter 15

  99. 01:54:44.878 : en:Chapter 16


复制代码



文件下载


除非特别注明,本文『昭和64年 后篇[中文字幕].64.Part.II.2016.BluRay.1080p.x265.10bit-MiniHD 2.62GB』来源于互联网机器人自动抓取,非本站原创。 浮游电影网不对本文拥有版权,如有侵犯,请联系邮箱:fuyouu#yandex.com[#换成@]投诉。我们会在15个工作日内删除。 但烦请转载时请标明出处:“本文转载于『浮游电影网』,原文地址:https://www.fuyouu.com/22077.html

评论吧骚年!

发表你的见解   

昵称*

E-mail*(建议输入,以便收到博主回复的提示邮件)

验证码*

您可以使用eMule或eMule Mod(Windows)、aMule(Win、Linux、Mac)等软件下载eD2k链接。。
eMule收藏集(.emulecollection)文件是您选中的所有链接的列表文件。eMule可以直接下载它们。
按住SHIFT键选择可以选中多个选择框。
可用文件名和大小选择器来选择文件。
文件名选择器帮您根据文件名称或后缀来选择文件。不分大小写。
符号使用:
和:空格( )、+
不包含:-
或:|
转义:一对英文引号("");
匹配开头:^
匹配结尾:$
例如:
选中所有名称中包含有“eMule”或“0.49c”字眼,但不包含有“exe”字眼的:emule|0.49c -exe
选中所有名称的开头是“eMule”,结尾是“0.49c”的:^emule 0.49c$
选中所有名称中带有“eMule 0.49c”的(必须是“eMule 0.49c”,中间没有别的字符,不能是“eMule fake 0.49c”),需要转义:"emule 0.49c"
大小选择器帮您根据文件大小选择文件。