当前位置: 首页 >> 欧美电影 >> 昨夜情深[中英字幕].About.Last.Night.1986.BluRay.1080p.x265.10bit-MiniHD 5.23GB >> 正文

昨夜情深[中英字幕].About.Last.Night.1986.BluRay.1080p.x265.10bit-MiniHD 5.23GB

2022年05月12日 22:36:19     电影发布:来源于网络     电影分类:欧美电影     评论(0)    

◎译 名 昨夜情深 / 邂逅 / 关于昨晚

◎片 名 About Last Night...

◎年 代 1986

◎产 地 美国

◎类 别 剧情 / 喜剧 / 爱情

◎语 言 英语

◎上映日期 1986-07-02

◎IMDb链接 https://www.imdb.com/title/tt0090583/

◎豆瓣评分 6.8/10 (199人评价)

◎豆瓣链接 https://movie.douban.com/subject/1297384/

◎片 长 113 分钟

◎导 演 爱德华·兹威克 Edward Zwick (id:1027877)

◎编 剧 蒂姆·卡祖林斯基 Tim Kazurinsky (id:1032311)

◎演 员 罗伯·劳 Rob Lowe (id:1041066)

黛米·摩尔 Demi Moore (id:1047988)

詹姆斯·贝鲁什 James Belushi (id:1019035)

Ada Maris Ada Maris (id:1291006)

伊丽莎白·帕金斯 Elizabeth Perkins (id:1040536)

Arnold Stiefel Arnold Stiefel (id:1298453)

Harry Keramidas Harry Keramidas (id:1276515)

伊达·兰多姆 Ida Random (id:1295222)

德博拉·林恩·斯科特 Deborah Lynn Scott (id:1297071)

罗伯特·瑞恩 Robert Ryan (id:1296391)

盖尔·罗维尔-瑞恩 Gail Rowell-Ryan (id:1296231)

◎简 介

A man and woman meet and try to have a romantic affair, despite their personal problems and the interference of their disapproving friends.

  1. ##### MediaInfo ######

  2. General

  3. Unique ID : 212068410209175207317006398151059516948 (0x9F8AE3E0BE044BBA8E4433C7E2532E14)

  4. Complete name : About.Last.Night..1986.BluRay.1080p.x265.10bit-MiniHD.mkv

  5. Format : Matroska

  6. Format version : Version 4

  7. File size : 5.22 GiB

  8. Duration : 1 h 53 min

  9. Overall bit rate : 6 605 kb/s

  10. Encoded date : UTC 2017-03-06 03:02:01

  11. Writing application : mkvmerge v9.7.1 ('Pandemonium') 64bit

  12. Writing library : libebml v1.3.4 + libmatroska v1.4.5

  13. Video

  14. ID : 1

  15. Format : HEVC

  16. Format/Info : High Efficiency Video Coding

  17. Format profile : Main [email protected]@Main

  18. Codec ID : V_MPEGH/ISO/HEVC

  19. Duration : 1 h 53 min

  20. Bit rate : 5 906 kb/s

  21. Width : 1 920 pixels

  22. Height : 1 040 pixels

  23. Display aspect ratio : 1.85:1

  24. Frame rate mode : Constant

  25. Frame rate : 23.976 (24000/1001/53354) FPS

  26. Color space : YUV

  27. Chroma subsampling : 4:2:0

  28. Bit depth : 10 bits

  29. Bits/(Pixel*Frame) : 0.123

  30. Stream size : 4.67 GiB (89%)

  31. Writing library : x265 2.3+7-c15f8bce9f4b:[Windows][GCC 6.3.0][64 bit] 10bit

  32. Encoding settings : cpuid=533541173503 / frame-threads=6 / numa-pools=36 / wpp / no-pmode / no-pme / no-psnr / no-ssim / log-level=2 / input-csp=1 / input-res=1920x1040 / interlace=0 / total-frames=162864 / level-idc=0 / high-tier=1 / uhd-bd=0 / ref=5 / no-allow-non-conformance / no-repeat-headers / annexb / no-aud / no-hrd / info / hash=0 / no-temporal-layers / no-open-gop / min-keyint=1 / keyint=360 / bframes=8 / b-adapt=2 / b-pyramid / bframe-bias=0 / rc-lookahead=60 / lookahead-slices=4 / NTMzNTQ=uuDQuD2mJt9fsCf / scenecut=40 / no-intra-refresh / ctu=32 / min-cu-size=8 / rect / no-amp / max-tu-size=16 / tu-inter-depth=2 / tu-intra-depth=2 / limit-tu=0 / rdoq-level=2 / dynamic-rd=0.00 / signhide / no-tskip / nr-intra=0 / nr-inter=0 / no-constrained-intra / no-strong-intra-smoothing / max-merge=3 / limit-refs=2 / limit-modes / me=3 / subme=5 / merange=25 / temporal-mvp / weightp / weightb / no-analyze-src-pics / deblock=-1:-1 / no-sao / no-sao-non-deblock / rd=4 / no-early-skip / rskip / no-fast-intra / no-tskip-fast / no-cu-lossless / b-intra / rdpenalty=1 / psy-rd=0.00 / psy-rdoq=5.00 / no-rd-refine / analysis-mode=0 / no-lossless / cbqpoffs=-2 / crqpoffs=-2 / rc=crf / crf=20.0 / qcomp=0.65 / qpstep=4 / stats-write=0 / stats-read=0 / ipratio=1.40 / pbratio=1.30 / aq-mode=2 / aq-strength=0.70 / cutree / zone-count=0 / no-strict-cbr / qg-size=16 / no-rc-grain / qpmax=69 / qpmin=0 / sar=0 / overscan=0 / videoformat=5 / range=0 / colorprim=1 / transfer=2 / colormatrix=2 / chromaloc=0 / display-window=0 / max-cll=0,0 / min-luma=0 / max-luma=1023 / log2-max-poc-lsb=8 / vui-timing-info / vui-hrd-info / slices=1 / opt-qp-pps / opt-ref-list-length-pps / no-multi-pass-opt-rps / scenecut-bias=0.05 / no-opt-cu-delta-qp / no-aq-motion / no-hdr / no-hdr-opt / Capture-colorprim=3

  33. Default : Yes

  34. Forced : No

  35. Color range : Limited

  36. Color primaries : BT.709

  37. Audio

  38. ID : 2

  39. Format : AC-3

  40. Format/Info : Audio Coding 3

  41. Commercial name : Dolby Digital

  42. Codec ID : A_AC3

  43. Duration : 1 h 53 min

  44. Bit rate mode : Constant

  45. Bit rate : 640 kb/s

  46. Channel(s) : 6 channels

  47. Channel layout : L R C LFE Ls Rs

  48. Sampling rate : 48.0 kHz

  49. Frame rate : 31.250 FPS (1536 SPF)

  50. Compression mode : Lossy

  51. Stream size : 518 MiB (10%)

  52. Language : English

  53. Service kind : Complete Main

  54. Default : Yes

  55. Forced : No

  56. Text #1

  57. ID : 3

  58. Format : PGS

  59. Muxing mode : zlib

  60. Codec ID : S_HDMV/PGS

  61. Codec ID/Info : Picture based subtitle format used on BDs/HD-DVDs

  62. Duration : 1 h 49 min

  63. Bit rate : 21.8 kb/s

  64. Count of elements : 2916

  65. Stream size : 17.1 MiB (0%)

  66. Language : English

  67. Default : Yes

  68. Forced : No

  69. Text #2

  70. ID : 4

  71. Format : PGS

  72. Muxing mode : zlib

  73. Codec ID : S_HDMV/PGS

  74. Codec ID/Info : Picture based subtitle format used on BDs/HD-DVDs

  75. Duration : 1 h 49 min

  76. Bit rate : 18.2 kb/s

  77. Count of elements : 2926

  78. Stream size : 14.3 MiB (0%)

  79. Language : Chinese

  80. Default : No

  81. Forced : No

  82. Text #3

  83. ID : 5

  84. Format : PGS

  85. Muxing mode : zlib

  86. Codec ID : S_HDMV/PGS

  87. Codec ID/Info : Picture based subtitle format used on BDs/HD-DVDs

  88. Duration : 1 h 49 min

  89. Bit rate : 18.8 kb/s

  90. Count of elements : 2926

  91. Stream size : 14.7 MiB (0%)

  92. Language : Chinese

  93. Default : No

  94. Forced : No


复制代码



文件下载


除非特别注明,本文『昨夜情深[中英字幕].About.Last.Night.1986.BluRay.1080p.x265.10bit-MiniHD 5.23GB』来源于互联网机器人自动抓取,非本站原创。 浮游电影网不对本文拥有版权,如有侵犯,请联系邮箱:fuyouu#yandex.com[#换成@]投诉。我们会在15个工作日内删除。 但烦请转载时请标明出处:“本文转载于『浮游电影网』,原文地址:https://www.fuyouu.com/22075.html

评论吧骚年!

发表你的见解   

昵称*

E-mail*(建议输入,以便收到博主回复的提示邮件)

验证码*

您可以使用eMule或eMule Mod(Windows)、aMule(Win、Linux、Mac)等软件下载eD2k链接。。
eMule收藏集(.emulecollection)文件是您选中的所有链接的列表文件。eMule可以直接下载它们。
按住SHIFT键选择可以选中多个选择框。
可用文件名和大小选择器来选择文件。
文件名选择器帮您根据文件名称或后缀来选择文件。不分大小写。
符号使用:
和:空格( )、+
不包含:-
或:|
转义:一对英文引号("");
匹配开头:^
匹配结尾:$
例如:
选中所有名称中包含有“eMule”或“0.49c”字眼,但不包含有“exe”字眼的:emule|0.49c -exe
选中所有名称的开头是“eMule”,结尾是“0.49c”的:^emule 0.49c$
选中所有名称中带有“eMule 0.49c”的(必须是“eMule 0.49c”,中间没有别的字符,不能是“eMule fake 0.49c”),需要转义:"emule 0.49c"
大小选择器帮您根据文件大小选择文件。