当前位置: 首页 >> 日韩电影 >> 春逝[国韩多音轨/中英字幕].One.Fine.Spring.Day.2001.BluRay.1080p.x265.10bit.2Audio-MiniHD 4.52GB >> 正文

春逝[国韩多音轨/中英字幕].One.Fine.Spring.Day.2001.BluRay.1080p.x265.10bit.2Audio-MiniHD 4.52GB

2022年05月12日 22:20:54     电影发布:来源于网络     电影分类:日韩电影     评论(0)    

◎译 名 春逝 / One Fine Spring Day / 春の日は過ぎゆく

◎片 名 ??? ??

◎年 代 2001

◎产 地 韩国 / 日本 / 中国香港

◎类 别 剧情 / 爱情

◎语 言 韩语

◎上映日期 2001-09-28(韩国)

◎IMDb链接 https://www.imdb.com/title/tt0295192/

◎豆瓣评分 7.9/10 (21436人评价)

◎豆瓣链接 https://movie.douban.com/subject/1300186/

◎片 长 115分钟

◎导 演 许秦豪 Jin-ho Heo (id:1023555)

◎编 剧 许秦豪 Jin-ho Heo (id:1023555)

◎演 员 李英爱 Yeong-ae Lee (id:1004933)

刘智泰 Ji-Tae Yoo (id:1167498)

李文植 Mun-shik Lee (id:1274621)

朴仁焕 In-hwan Park (id:1015328)

白钟学 Jong-hak Baek (id:1127043)

孙荣顺 Young-soon Son (id:1379534)

金美京 Mi-kyung Kim (id:1315405)

赵星宇 Sung-woo Jo (id:1280698)

金炯求 Hyung-ku Kim (id:1288539)

李江山 Kang-sang Lee (id:1434665)

李江山 Kang-sang Lee (id:1434665)

李庸基 Yong-Gi Lee (id:1314650)

◎简 介

录音师李尚优(刘智泰饰)的妈妈早年去世,跟他相依为命的只有爸爸和患上了老人疑呆的奶奶。一个冬天,尚优认识了刚刚离婚的电台DJ韩恩素(李英爱饰)。

恩素到来的目的是为自己的节目收录一些效果声音,他们到了一个竹林,用录音工具录下了风吹起竹叶的声音,到一间寺庙录取风铃的声音。他们走遍郊区,四处记录大自然的声音。

两人感情发展迅速,春去夏至,李尚优和韩恩素跑到海边捕捉浪潮声。年轻的尚优仍然爱得炽热,但恩素的激情却开始冷淡下来。曾经历婚姻失败的她,始终不相信爱情会永恒不变,未能忘记离婚所带来的伤痛。而他一直想不通,爱情怎么会无声无息地溜走?

◎获奖情况 (共3项)

第14届东京国际电影节 (2001)

主竞赛单元 最佳影片(提名)

└──许秦豪 (id:1023555)

主竞赛单元 最佳艺术贡献奖

└──许秦豪 (id:1023555)

第6届釜山国际电影节 (2001)

国际影评人协会奖

└──许秦豪 (id:1023555)

  1. ##### MediaInfo ######

  2. General

  3. Unique ID : 195434377959655113784749006127172925617 (0x93074AC4EFDB72ADA961D1E6DE9BB8B1)

  4. Complete name : One.Fine.Spring.Day.2001.BluRay.1080p.x265.10bit.2Audio-MiniHD.mkv

  5. Format : Matroska

  6. Format version : Version 4

  7. File size : 4.52 GiB

  8. Duration : 1 h 54 min

  9. Overall bit rate : 5 627 kb/s

  10. Encoded date : UTC 2017-01-22 04:19:54

  11. Writing application : mkvmerge v9.7.1 ('Pandemonium') 64bit

  12. Writing library : libebml v1.3.4 + libmatroska v1.4.5

  13. Video

  14. ID : 1

  15. Format : HEVC

  16. Format/Info : High Efficiency Video Coding

  17. Format profile : Main [email protected]@Main

  18. Codec ID : V_MPEGH/ISO/HEVC

  19. Duration : 1 h 54 min

  20. Bit rate : 4 427 kb/s

  21. Width : 1 920 pixels

  22. Height : 1 040 pixels

  23. Display aspect ratio : 1.85:1

  24. Frame rate mode : Constant

  25. Frame rate : 23.976 (24000/1001/53354) FPS

  26. Color space : YUV

  27. Chroma subsampling : 4:2:0

  28. Bit depth : 10 bits

  29. Bits/(Pixel*Frame) : 0.092

  30. Stream size : 3.56 GiB (79%)

  31. Writing library : x265 2.2+5-e40db0bdde4a:[Windows][GCC 6.2.0][64 bit] 10bit

  32. Encoding settings : cpuid=533541173503 / frame-threads=6 / numa-pools=36 / wpp / no-pmode / no-pme / no-psnr / no-ssim / log-level=2 / input-csp=1 / input-res=1920x1040 / interlace=0 / total-frames=165375 / level-idc=0 / high-tier=1 / uhd-bd=0 / ref=5 / no-allow-non-conformance / no-repeat-headers / annexb / no-aud / no-hrd / info / hash=0 / no-temporal-layers / no-open-gop / min-keyint=1 / keyint=360 / bframes=8 / b-adapt=2 / b-pyramid / bframe-bias=0 / rc-lookahead=60 / lookahead-slices=4 / NTMzNTQ=uuDQuD2mJt9fsCf / scenecut=40 / no-intra-refresh / ctu=32 / min-cu-size=8 / rect / no-amp / max-tu-size=16 / tu-inter-depth=2 / tu-intra-depth=2 / limit-tu=0 / rdoq-level=2 / signhide / no-tskip / nr-intra=0 / nr-inter=0 / no-constrained-intra / no-strong-intra-smoothing / max-merge=3 / limit-refs=3 / limit-modes / me=3 / subme=5 / merange=25 / temporal-mvp / weightp / weightb / no-analyze-src-pics / deblock=-1:-1 / no-sao / no-sao-non-deblock / rd=4 / no-early-skip / rskip / no-fast-intra / no-tskip-fast / no-cu-lossless / b-intra / rdpenalty=1 / psy-rd=2.00 / psy-rdoq=5.00 / no-rd-refine / analysis-mode=0 / no-lossless / cbqpoffs=-2 / crqpoffs=-2 / rc=crf / crf=21.0 / qcomp=0.65 / qpstep=4 / stats-write=0 / stats-read=0 / ipratio=1.40 / pbratio=1.30 / aq-mode=3 / aq-strength=0.80 / cutree / zone-count=0 / no-strict-cbr / qg-size=16 / no-rc-grain / qpmax=69 / qpmin=0 / sar=0 / overscan=0 / videoformat=5 / range=0 / colorprim=1 / transfer=2 / colormatrix=2 / chromaloc=0 / display-window=0 / max-cll=0,0 / min-luma=0 / max-luma=1023 / log2-max-poc-lsb=8 / vui-timing-info / vui-hrd-info / slices=1 / opt-qp-pps / opt-ref-list-length-pps / no-multi-pass-opt-rps / scenecut-bias=0.05 / no-opt-cu-delta-qp

  33. Default : Yes

  34. Forced : No

  35. Color range : Limited

  36. Color primaries : BT.709

  37. Audio #1

  38. ID : 2

  39. Format : AC-3

  40. Format/Info : Audio Coding 3

  41. Commercial name : Dolby Digital

  42. Codec ID : A_AC3

  43. Duration : 1 h 54 min

  44. Bit rate mode : Constant

  45. Bit rate : 640 kb/s

  46. Channel(s) : 5 channels

  47. Channel layout : L R C Ls Rs

  48. Sampling rate : 48.0 kHz

  49. Frame rate : 31.250 FPS (1536 SPF)

  50. Compression mode : Lossy

  51. Stream size : 526 MiB (11%)

  52. Language : Korean

  53. Service kind : Complete Main

  54. Default : Yes

  55. Forced : No

  56. Audio #2

  57. ID : 3

  58. Format : AC-3

  59. Format/Info : Audio Coding 3

  60. Commercial name : Dolby Digital

  61. Codec ID : A_AC3

  62. Duration : 1 h 54 min

  63. Bit rate mode : Constant

  64. Bit rate : 448 kb/s

  65. Channel(s) : 6 channels

  66. Channel layout : L R C LFE Ls Rs

  67. Sampling rate : 48.0 kHz

  68. Frame rate : 31.250 FPS (1536 SPF)

  69. Compression mode : Lossy

  70. Stream size : 368 MiB (8%)

  71. Language : Chinese

  72. Service kind : Complete Main

  73. Default : No

  74. Forced : No

  75. Text #1

  76. ID : 4

  77. Format : PGS

  78. Muxing mode : zlib

  79. Codec ID : S_HDMV/PGS

  80. Codec ID/Info : Picture based subtitle format used on BDs/HD-DVDs

  81. Language : Korean

  82. Default : Yes

  83. Forced : No

  84. Text #2

  85. ID : 5

  86. Format : PGS

  87. Muxing mode : zlib

  88. Codec ID : S_HDMV/PGS

  89. Codec ID/Info : Picture based subtitle format used on BDs/HD-DVDs

  90. Language : English

  91. Default : No

  92. Forced : No

  93. Text #3

  94. ID : 6

  95. Format : PGS

  96. Muxing mode : zlib

  97. Codec ID : S_HDMV/PGS

  98. Codec ID/Info : Picture based subtitle format used on BDs/HD-DVDs

  99. Language : Chinese

  100. Default : No

  101. Forced : No

  102. Text #4

  103. ID : 7

  104. Format : PGS

  105. Muxing mode : zlib

  106. Codec ID : S_HDMV/PGS

  107. Codec ID/Info : Picture based subtitle format used on BDs/HD-DVDs

  108. Language : Chinese

  109. Default : No

  110. Forced : No

  111. Menu

  112. 00:00:00.000 : en:Chapter 01

  113. 00:04:08.414 : en:Chapter 02

  114. 00:11:01.077 : en:Chapter 03

  115. 00:15:30.179 : en:Chapter 04

  116. 00:19:27.082 : en:Chapter 05

  117. 00:25:58.098 : en:Chapter 06

  118. 00:29:26.890 : en:Chapter 07

  119. 00:35:51.107 : en:Chapter 08

  120. 00:38:48.117 : en:Chapter 09

  121. 00:42:19.954 : en:Chapter 10

  122. 00:46:49.723 : en:Chapter 11

  123. 00:55:00.797 : en:Chapter 12

  124. 00:57:14.180 : en:Chapter 13

  125. 01:02:43.426 : en:Chapter 14

  126. 01:07:44.977 : en:Chapter 15

  127. 01:09:51.979 : en:Chapter 16

  128. 01:12:20.127 : en:Chapter 17

  129. 01:21:49.195 : en:Chapter 18

  130. 01:24:16.176 : en:Chapter 19

  131. 01:30:43.521 : en:Chapter 20

  132. 01:41:00.012 : en:Chapter 21

  133. 01:44:39.648 : en:Chapter 22

  134. 01:45:50.677 : en:Chapter 23

  135. 01:50:06.725 : en:Chapter 24


复制代码



文件下载


除非特别注明,本文『春逝[国韩多音轨/中英字幕].One.Fine.Spring.Day.2001.BluRay.1080p.x265.10bit.2Audio-MiniHD 4.52GB』来源于互联网机器人自动抓取,非本站原创。 浮游电影网不对本文拥有版权,如有侵犯,请联系邮箱:fuyouu#yandex.com[#换成@]投诉。我们会在15个工作日内删除。 但烦请转载时请标明出处:“本文转载于『浮游电影网』,原文地址:https://www.fuyouu.com/22074.html

评论吧骚年!

发表你的见解   

昵称*

E-mail*(建议输入,以便收到博主回复的提示邮件)

验证码*

您可以使用eMule或eMule Mod(Windows)、aMule(Win、Linux、Mac)等软件下载eD2k链接。。
eMule收藏集(.emulecollection)文件是您选中的所有链接的列表文件。eMule可以直接下载它们。
按住SHIFT键选择可以选中多个选择框。
可用文件名和大小选择器来选择文件。
文件名选择器帮您根据文件名称或后缀来选择文件。不分大小写。
符号使用:
和:空格( )、+
不包含:-
或:|
转义:一对英文引号("");
匹配开头:^
匹配结尾:$
例如:
选中所有名称中包含有“eMule”或“0.49c”字眼,但不包含有“exe”字眼的:emule|0.49c -exe
选中所有名称的开头是“eMule”,结尾是“0.49c”的:^emule 0.49c$
选中所有名称中带有“eMule 0.49c”的(必须是“eMule 0.49c”,中间没有别的字符,不能是“eMule fake 0.49c”),需要转义:"emule 0.49c"
大小选择器帮您根据文件大小选择文件。