当前位置: 首页 >> 港台电影 >> 春光乍泄[粤语配音/中文字幕].Happy.Together.1997.BluRay.1080p.x265.10bit-MiniHD 4.38GB >> 正文

春光乍泄[粤语配音/中文字幕].Happy.Together.1997.BluRay.1080p.x265.10bit-MiniHD 4.38GB

2022年05月12日 22:19:59     电影发布:来源于网络     电影分类:港台电影     评论(0)    

◎译 名 春光乍泄 / 一起快乐 / Happy Together / Buenos Aires Affair

◎片 名 春光乍洩

◎年 代 1997

◎产 地 中国香港 / 日本 / 韩国

◎类 别 剧情 / 爱情 / 同性

◎语 言 粤语 / 汉语普通话 / 西班牙语

◎上映日期 1997-05-30(中国香港) / 1997-05-17(戛纳电影节)

◎IMDb链接 https://www.imdb.com/title/tt0118845/

◎豆瓣评分 9.0/10 (570266人评价)

◎豆瓣链接 https://movie.douban.com/subject/1292679/

◎片 长 96分钟

◎导 演 王家卫 Kar Wai Wong (id:1041024)

◎编 剧 王家卫 Kar Wai Wong (id:1041024)

◎演 员 张国荣 Leslie Cheung (id:1003494)

梁朝伟 Tony Leung Chiu Wai (id:1115918)

张震 Chen Chang (id:1077991)

格利高里·戴顿 Gregory Dayton (id:1410860)

王家卫 Kar Wai Wong (id:1041024)

彭绮华 Jacky Pang Yee Wah (id:1313613)

陈以靳 Ye-cheng Chan (id:1321943)

钟定一 Danny Chung (id:1280781)

邓少林 Siu-Lam Tang (id:1350586)

杜可风 Christopher Doyle (id:1045151)

黎耀辉 Yiu-Fai Lai (id:1289265)

何宝荣 Po Wing Ho (id:1439454)

何嘉辉 Ka-Hui Ho (id:1439128)

张叔平 William Chang (id:1274369)

黄铭林 Ming Lam Wong (id:1301205)

吕丽桦 Olivia Lui Lai-wah (id:1328035)

张叔平 William Chang (id:1274369)

张叔平 William Chang (id:1274369)

江约诚 Johnnie Kong Yeuk-Sing (id:1320946)

杜笃之 Du-Che Tu (id:1275159)

黄志明 Wong Chi-Ming (id:1398895)

◎简 介

黎耀辉(梁朝伟)与何宝荣(张国荣)是一对同性恋人,为了有新的开始,他们怀着美丽的梦想(去看南美洲大瀑布)离开香港来到阿根廷,却在布宜诺斯艾利斯迷了路。黎耀辉想安下心来过日子,无奈何宝荣于夜夜笙歌中放纵着自己的生命,以期找寻更多的刺激,只当黎耀辉是他受伤后的港湾,两人分歧 、争吵越来越多,心的距离越来越远。

黎耀辉明白过去的日子不可能再复返时,决定离开何宝荣,而正是在他离开后,绝望的意味(对黎耀辉的爱)才在何宝荣的脑海中完整地浮现。

◎获奖情况 (共17项)

第50届戛纳电影节 (1997)

主竞赛单元 金棕榈奖(提名)

└──王家卫 (id:1041024)

主竞赛单元 最佳导演

└──王家卫 (id:1041024)

第34届台北金马影展 (1997)

金马奖 最佳导演(提名)

└──王家卫 (id:1041024)

金马奖 最佳男主角(提名)

└──张国荣 (id:1003494)

金马奖 最佳摄影

└──杜可风 (id:1045151)

金马奖 最佳美术设计(提名)

└──张叔平 (id:1274369)

金马奖 最佳剪辑(提名)

金马奖 最佳音效(提名)

第17届香港电影金像奖 (1998)

最佳电影(提名)

└──王家卫 (id:1041024)

最佳导演(提名)

└──王家卫 (id:1041024)

最佳男主角

└──梁朝伟 (id:1115918)

最佳男主角(提名)

└──张国荣 (id:1003494)

最佳男配角(提名)

└──张震 (id:1077991)

最佳摄影(提名)

└──杜可风 (id:1045151)

最佳剪接(提名)

最佳美术指导(提名)

└──张叔平 (id:1274369)

最佳服装造型设计(提名)

└──张叔平 (id:1274369)

  1. ##### MediaInfo ######

  2. General

  3. Unique ID : 175597745641453990319616423335157815482 (0x841AE5494DC4A842A964C8C774B3D8BA)

  4. Complete name : Happy.Together.1997.BluRay.1080p.x265.10bit-MiniHD.mkv

  5. Format : Matroska

  6. Format version : Version 4

  7. File size : 4.38 GiB

  8. Duration : 1 h 35 min

  9. Overall bit rate : 6 537 kb/s

  10. Encoded date : UTC 2016-06-23 09:19:15

  11. Writing application : mkvmerge v9.1.0 ('Little Earthquakes') 32bit

  12. Writing library : libebml v1.3.3 + libmatroska v1.4.4

  13. Video

  14. ID : 1

  15. Format : HEVC

  16. Format/Info : High Efficiency Video Coding

  17. Format profile : Main [email protected]@Main

  18. Codec ID : V_MPEGH/ISO/HEVC

  19. Duration : 1 h 35 min

  20. Bit rate : 5 767 kb/s

  21. Width : 1 920 pixels

  22. Height : 1 038 pixels

  23. Display aspect ratio : 1.85:1

  24. Frame rate mode : Constant

  25. Frame rate : 23.976 (24000/1001/53354) FPS

  26. Color space : YUV

  27. Chroma subsampling : 4:2:0

  28. Bit depth : 10 bits

  29. Bits/(Pixel*Frame) : 0.121

  30. Stream size : 3.86 GiB (88%)

  31. Writing library : x265 1.9+200-6098ba3e0cf16b11:[Windows][GCC 5.3.0][64 bit] 10bit

  32. Encoding settings : wpp / ctu=32 / min-cu-size=8 / max-tu-size=16 / tu-intra-depth=2 / tu-inter-depth=2 / me=3 / subme=5 / merange=21 / no-rect / no-amp / max-merge=3 / temporal-mvp / no-early-skip / no-recursion-skip / rdpenalty=1 / no-tskip / no-tskip-fast / no-strong-intra-smoothing / no-lossless / no-cu-lossless / no-constrained-intra / no-fast-intra / no-open-gop / no-temporal-layers / interlace=0 / keyint=360 / min-keyint=1 / NTMzNTQ=uuDQuD2mJt9fsCf / scenecut=40 / rc-lookahead=60 / lookahead-slices=4 / bframes=8 / bframe-bias=0 / b-adapt=2 / ref=5 / limit-refs=3 / limit-modes / weightp / weightb / aq-mode=1 / qg-size=16 / aq-strength=1.00 / cbqpoffs=0 / crqpoffs=0 / rd=4 / psy-rd=0.30 / rdoq-level=1 / psy-rdoq=5.00 / no-rd-refine / signhide / deblock=0:0 / no-sao / no-sao-non-deblock / b-pyramid / cutree / no-intra-refresh / rc=crf / crf=21.0 / qcomp=0.60 / qpmin=0 / qpmax=51 / qpstep=4 / ipratio=1.40 / pbratio=1.30

  33. Default : Yes

  34. Forced : No

  35. Color range : Limited

  36. Color primaries : BT.709

  37. Audio

  38. ID : 2

  39. Format : AC-3

  40. Format/Info : Audio Coding 3

  41. Commercial name : Dolby Digital

  42. Codec ID : A_AC3

  43. Duration : 1 h 35 min

  44. Bit rate mode : Constant

  45. Bit rate : 640 kb/s

  46. Channel(s) : 6 channels

  47. Channel layout : L R C LFE Ls Rs

  48. Sampling rate : 48.0 kHz

  49. Frame rate : 31.250 FPS (1536 SPF)

  50. Compression mode : Lossy

  51. Stream size : 439 MiB (10%)

  52. Language : Chinese

  53. Service kind : Complete Main

  54. Default : Yes

  55. Forced : No

  56. Text

  57. ID : 3

  58. Format : PGS

  59. Muxing mode : zlib

  60. Codec ID : S_HDMV/PGS

  61. Codec ID/Info : Picture based subtitle format used on BDs/HD-DVDs

  62. Language : Chinese

  63. Default : Yes

  64. Forced : No

  65. Menu

  66. 00:00:00.000 : en:Chapter 01

  67. 00:07:27.405 : en:Chapter 02

  68. 00:12:37.506 : en:Chapter 03

  69. 00:19:41.013 : en:Chapter 04

  70. 00:25:24.147 : en:Chapter 05

  71. 00:32:11.179 : en:Chapter 06

  72. 00:39:08.304 : en:Chapter 07

  73. 00:43:37.531 : en:Chapter 08

  74. 00:48:46.089 : en:Chapter 09

  75. 00:53:28.371 : en:Chapter 10

  76. 01:01:21.844 : en:Chapter 11

  77. 01:07:24.331 : en:Chapter 12

  78. 01:10:55.793 : en:Chapter 13

  79. 01:16:25.831 : en:Chapter 14

  80. 01:28:16.833 : en:Chapter 15

  81. 01:35:55.750 : en:Chapter 16


复制代码



文件下载


除非特别注明,本文『春光乍泄[粤语配音/中文字幕].Happy.Together.1997.BluRay.1080p.x265.10bit-MiniHD 4.38GB』来源于互联网机器人自动抓取,非本站原创。 浮游电影网不对本文拥有版权,如有侵犯,请联系邮箱:fuyouu#yandex.com[#换成@]投诉。我们会在15个工作日内删除。 但烦请转载时请标明出处:“本文转载于『浮游电影网』,原文地址:https://www.fuyouu.com/22073.html

评论吧骚年!

发表你的见解   

昵称*

E-mail*(建议输入,以便收到博主回复的提示邮件)

验证码*

您可以使用eMule或eMule Mod(Windows)、aMule(Win、Linux、Mac)等软件下载eD2k链接。。
eMule收藏集(.emulecollection)文件是您选中的所有链接的列表文件。eMule可以直接下载它们。
按住SHIFT键选择可以选中多个选择框。
可用文件名和大小选择器来选择文件。
文件名选择器帮您根据文件名称或后缀来选择文件。不分大小写。
符号使用:
和:空格( )、+
不包含:-
或:|
转义:一对英文引号("");
匹配开头:^
匹配结尾:$
例如:
选中所有名称中包含有“eMule”或“0.49c”字眼,但不包含有“exe”字眼的:emule|0.49c -exe
选中所有名称的开头是“eMule”,结尾是“0.49c”的:^emule 0.49c$
选中所有名称中带有“eMule 0.49c”的(必须是“eMule 0.49c”,中间没有别的字符,不能是“eMule fake 0.49c”),需要转义:"emule 0.49c"
大小选择器帮您根据文件大小选择文件。