当前位置: 首页 >> 欧美电影 >> 星际旅行1:无限太空[国英多音轨/中英字幕].Star.Trek.2009.BluRay.1080p.x265.10bit.2Audio-MiniHD 7.63GB >> 正文

星际旅行1:无限太空[国英多音轨/中英字幕].Star.Trek.2009.BluRay.1080p.x265.10bit.2Audio-MiniHD 7.63GB

2022年05月12日 22:19:04     电影发布:来源于网络     电影分类:欧美电影     评论(0)    

◎译 名 星际旅行1:无限太空 / 星际迷航1 / 星空奇遇记1:最后战线(港) / 星舰奇航记1:星际争霸战(台) / 星际迷航之太空风云 / 星际迷航:太空风云 / 星际争霸战1 / 星舰迷航记1 / Star Trek 1

◎片 名 Star Trek: The Motion Picture

◎年 代 1979

◎产 地 美国

◎类 别 科幻 / 悬疑 / 奇幻 / 冒险

◎语 言 英语 / Klingon

◎上映日期 1979-12-06

◎IMDb链接 https://www.imdb.com/title/tt0079945/

◎豆瓣评分 7.7/10 (15130人评价)

◎豆瓣链接 https://movie.douban.com/subject/1300089/

◎片 长 132分钟

◎导 演 罗伯特·怀斯 Robert Wise (id:1049929)

◎编 剧 哈罗德·利维斯顿 Harold Livingston (id:1052249)

吉恩·罗登贝瑞 Gene Roddenberry (id:1025307)

Alan Dean Foster Alan Dean Foster (id:1042046)

◎演 员 威廉·夏特纳 William Shatner (id:1002704)

伦纳德·尼莫伊 Leonard Nimoy (id:1002706)

德福雷斯特·凯利 DeForest Kelley (id:1055377)

詹姆斯·杜汉 James Doohan (id:1055304)

武井乔治 George Takei (id:1002752)

珀西丝·汉姆巴塔 Persis Khambatta (id:1027305)

沃尔特·凯尼格 Walter Koenig (id:1049802)

尼切尔·尼克斯 Nichelle Nichols (id:1013991)

Billy Van Zandt Billy Van Zandt (id:1036752)

马杰尔·巴雷特 Majel Barrett (id:1031978)

David Gerrold David Gerrold (id:1005570)

史蒂芬·柯林斯 Stephen Collins (id:1027854)

Christopher Doohan Christopher Doohan (id:1217189)

格雷斯·李·惠特尼 Grace Lee Whitney (id:1168409)

David Gautreaux David Gautreaux (id:1094953)

Norman Stuart Norman Stuart (id:1153193)

Bjo Trimble Bjo Trimble (id:1152369)

Marcy Lafferty Marcy Lafferty (id:1289236)

Michael Rougas Michael Rougas (id:1144122)

Franklyn Seales Franklyn Seales (id:1141768)

汤姆·莫尔加 Tom Morga (id:1292474)

马克·雷纳德 Mark Lenard (id:1119280)

Gary Faga Gary Faga (id:1084699)

Roger Aaron Brown Roger Aaron Brown (id:1078369)

拉尔夫·拜尔斯 Ralph Byers (id:1074996)

理查德·阿诺德 Richard Arnold (id:1056445)

乔尔·克莱默 Joel Kramer (id:1055932)

Montgomery Doohan (id:1222772)

David C. Fein David C. Fein (id:1283521)

Jon Povill Jon Povill (id:1294810)

吉恩·罗登贝瑞 Gene Roddenberry (id:1025307)

杰瑞·高德史密斯 Jerry Goldsmith (id:1007116)

理查·克莱因 Richard H. Kline (id:1042362)

Todd C. Ramsay Todd C. Ramsay (id:1295199)

Marvin Paige Marvin Paige (id:1293812)

莱昂·哈里斯 Leon Harris (id:1286102)

约翰·瓦隆 John Vallone (id:1011501)

哈罗德·迈克尔逊 Harold Michelson (id:1006326)

约瑟夫·R·詹宁斯 Joseph R. Jennings (id:1287679)

琳达·德森纳 Linda DeScenna (id:1282285)

Robert Fletcher Robert Fletcher (id:1052298)

Janna Phillips Janna Phillips (id:1294457)

Barbara Minster Barbara Minster (id:1292176)

里克·斯特拉顿 Rick Stratton (id:1298538)

Carlos Yeaggy Carlos Yeaggy (id:1163728)

Fred B. Phillips Fred B. Phillips (id:1135398)

维·尼尔 Ve Neill (id:1293011)

Kevin G. Cremin Kevin G. Cremin (id:1024286)

道格拉斯·特朗布尔 Douglas Trumbull (id:1000641)

Daniel McCauley Daniel McCauley (id:1125454)

派特·迈克朗 Pat McClung (id:1291484)

格兰特·麦丘恩 Grant McCune (id:1291510)

Michael Rivero Michael Rivero (id:1139186)

David R. Morton David R. Morton (id:1292579)

保罗·D·约翰逊 Paul D. Johnson (id:1111734)

Jack Hinkle Jack Hinkle (id:1098213)

埃里克·纳什 Erik Nash (id:1292926)

Jon Erland Jon Erland (id:1080764)

大卫·K·斯图尔特 David K. Stewart (id:1298434)

Sam Nicholson Sam Nicholson (id:1293152)

Philip Barberio Philip Barberio (id:1067250)

Thane Berti Thane Berti (id:1064419)

马克·弗伦德 Mark Freund (id:1284190)

唐·特朗布尔 Don Trumbull (id:1149405)

格雷格·金布尔 Greg Kimble (id:1288555)

迈克尔·L·芬克 Michael L. Fink (id:1283733)

斯科特·法勒 Scott Farrar (id:1283472)

道格·德雷克斯勒 Doug Drexler (id:1282718)

Daren Dochterman Daren Dochterman (id:1282515)

Glenn Campbell Glenn Campbell (id:1279971)

马克·贝克 Mat Beck (id:1278183)

比尔·乔治 Bill George (id:1284713)

Deidre Le Blanc (id:1221616)

罗科·焦弗雷 Rocco Gioffre (id:1284912)

容.格瑞斯 Ron Gress (id:1285436)

Marv Ystrom Marv Ystrom (id:1165048)

Sherry Hitch Sherry Hitch (id:1286696)

理查德·E·霍兰德尔 Richard E. Hollander (id:1286808)

格雷戈里·杰恩 Gregory Jein (id:1287652)

P.J. Foley P.J. Foley (id:1283929)

克里斯托弗·S·罗斯 Christopher S. Ross (id:1296139)

罗伯特·肖特 Robert Short (id:1297515)

约翰·戴克斯特拉 John Dykstra (id:1018536)

Vicky Witt Vicky Witt (id:1164590)

丹尼斯·迈克尔逊 Dennis Michelson (id:1008486)

迈克尔·乔伊斯 Michael Joyce (id:1008348)

霍伊特·耶特曼 Hoyt Yeatman (id:1007234)

罗伯特·斯沃斯 Robert Swarthe (id:1298715)

David R. Hardberger David R. Hardberger (id:1006420)

Richard Taylor Richard Taylor (id:1299012)

罗恩·桑顿 Ron Thornton (id:1299223)

理查德·尤里西奇 Richard Yuricich (id:1301577)

马修·尤里奇 Matthew Yuricich (id:1301579)

约翰·埃利斯 John Ellis (id:1305506)

Gregory L. McMurry Gregory L. McMurry (id:1001651)

莱斯利·艾克尔 Leslie Ekker (id:1024486)

John E. Sullivan John E. Sullivan (id:1298626)

道格拉斯·特朗布尔 Douglas Trumbull (id:1000641)

道格拉斯·汉斯·史密斯 Douglas Hans Smith (id:1297879)

David Sosalla David Sosalla (id:1298080)

罗伯特·斯普尔洛克 Robert Spurlock (id:1298196)

罗伯特·艾斯威特 Robert Elswit (id:1048280)

斯科特·斯奎尔斯 Scott Squires (id:1298205)

菲尔·乔安诺 Phil Joanou (id:1041436)

查尔斯·F·维尔勒 Charles F. Wheeler (id:1039241)

马克·斯泰特森 Mark Stetson (id:1298397)

Lee Stringer Lee Stringer (id:1298555)

◎简 介

寇克将军,欢迎您重返企业号!

一团硕大无朋的高能离子云,在遥远而神秘的太空中迅疾地飘移。这团能量云具有无坚不摧的威力,足以毁灭宇宙间任何物质结构。在它所划过的轨迹上,早已有好几艘分属银河三大势力的星舰遇难了……

地球-银河系星球联邦的重镇,星际舰队总部的所在地。在位于北美洲旧金山的星际联邦舰队总部,寇克将军正像往常一样百无聊赖无所事事,突然间却接到了一个再好不过的命令检视企业号准备执行紧急任务。原来地球的防卫体系己经发现了那团高能离子云,而且侦测出它正对准地球飞来。寇克将军的任务,就是要赶在它到达地球之前,率领企业号先迎上去一探究竟。

阔别了将近十年,当寇克重新登上企业号时,内心的兴奋与激动真是难以形容。可是当他 随着现任的舰长迪卡检阅过了人员与装备之后,却又不禁兴起不少陌生的感觉。因为经过 这些年来的不断改良,企业号的功能与威力都增强了许多,但也因...

◎获奖情况 (共3项)

第52届奥斯卡金像奖 (1980)

最佳视觉效果(提名)

最佳艺术指导(提名)

最佳原创配乐(提名)

└──杰瑞·高德史密斯 (id:1007116)

  1. ##### MediaInfo ######

  2. General

  3. Unique ID : 179768441446788145243470985995151869409 (0x873E247732B94E7DB13F852767C205E1)

  4. Complete name : Star.Trek.2009.BluRay.1080p.x265.10bit.2Audio-MiniHD.mkv

  5. Format : Matroska

  6. Format version : Version 4

  7. File size : 7.63 GiB

  8. Duration : 2 h 6 min

  9. Overall bit rate : 8 607 kb/s

  10. Encoded date : UTC 2016-10-25 06:20:51

  11. Writing application : mkvmerge v9.2.0 ('Photograph') 32bit

  12. Writing library : libebml v1.3.3 + libmatroska v1.4.4

  13. Video

  14. ID : 1

  15. Format : HEVC

  16. Format/Info : High Efficiency Video Coding

  17. Format profile : Main [email protected]@Main

  18. Codec ID : V_MPEGH/ISO/HEVC

  19. Duration : 2 h 6 min

  20. Bit rate : 7 411 kb/s

  21. Width : 1 920 pixels

  22. Height : 800 pixels

  23. Display aspect ratio : 2.40:1

  24. Frame rate mode : Constant

  25. Frame rate : 23.976 (24000/1001/53354) FPS

  26. Color space : YUV

  27. Chroma subsampling : 4:2:0

  28. Bit depth : 10 bits

  29. Bits/(Pixel*Frame) : 0.201

  30. Stream size : 6.57 GiB (86%)

  31. Writing library : x265 2.0+10-5a0e139e2938:[Windows][GCC 6.1.0][64 bit] 10bit

  32. Encoding settings : wpp / ctu=32 / min-cu-size=8 / max-tu-size=16 / tu-intra-depth=2 / tu-inter-depth=2 / me=3 / subme=5 / merange=25 / rect / no-amp / max-merge=3 / temporal-mvp / no-early-skip / rskip / rdpenalty=1 / no-tskip / no-tskip-fast / no-strong-intra-smoothing / no-lossless / no-cu-lossless / no-constrained-intra / no-fast-intra / no-open-gop / no-temporal-layers / interlace=0 / keyint=360 / min-keyint=1 / NTMzNTQ=uuDQuD2mJt9fsCf / scenecut=40 / rc-lookahead=60 / lookahead-slices=4 / bframes=8 / bframe-bias=0 / b-adapt=2 / ref=5 / limit-refs=3 / limit-modes / weightp / weightb / aq-mode=3 / qg-size=16 / aq-strength=0.90 / cbqpoffs=-3 / crqpoffs=-3 / rd=4 / psy-rd=1.00 / rdoq-level=2 / psy-rdoq=5.00 / no-rd-refine / signhide / deblock=-1:-1 / no-sao / no-sao-non-deblock / b-pyramid / cutree / no-intra-refresh / rc=crf / crf=21.0 / qcomp=0.70 / qpmin=0 / qpmax=69 / qpstep=4 / ipratio=1.40 / pbratio=1.30

  33. Default : Yes

  34. Forced : No

  35. Color range : Limited

  36. Color primaries : BT.709

  37. Audio #1

  38. ID : 2

  39. Format : AC-3

  40. Format/Info : Audio Coding 3

  41. Commercial name : Dolby Digital

  42. Codec ID : A_AC3

  43. Duration : 2 h 6 min

  44. Bit rate mode : Constant

  45. Bit rate : 640 kb/s

  46. Channel(s) : 6 channels

  47. Channel layout : L R C LFE Ls Rs

  48. Sampling rate : 48.0 kHz

  49. Frame rate : 31.250 FPS (1536 SPF)

  50. Compression mode : Lossy

  51. Stream size : 581 MiB (7%)

  52. Language : English

  53. Service kind : Complete Main

  54. Default : Yes

  55. Forced : No

  56. Audio #2

  57. ID : 3

  58. Format : AC-3

  59. Format/Info : Audio Coding 3

  60. Commercial name : Dolby Digital

  61. Codec ID : A_AC3

  62. Duration : 2 h 6 min

  63. Bit rate mode : Constant

  64. Bit rate : 384 kb/s

  65. Channel(s) : 6 channels

  66. Channel layout : L R C LFE Ls Rs

  67. Sampling rate : 48.0 kHz

  68. Frame rate : 31.250 FPS (1536 SPF)

  69. Compression mode : Lossy

  70. Stream size : 348 MiB (4%)

  71. Language : Chinese

  72. Service kind : Complete Main

  73. Default : No

  74. Forced : No

  75. Text #1

  76. ID : 4

  77. Format : PGS

  78. Muxing mode : zlib

  79. Codec ID : S_HDMV/PGS

  80. Codec ID/Info : Picture based subtitle format used on BDs/HD-DVDs

  81. Language : English

  82. Default : Yes

  83. Forced : No

  84. Text #2

  85. ID : 5

  86. Format : PGS

  87. Muxing mode : zlib

  88. Codec ID : S_HDMV/PGS

  89. Codec ID/Info : Picture based subtitle format used on BDs/HD-DVDs

  90. Language : Chinese

  91. Default : No

  92. Forced : No

  93. Text #3

  94. ID : 6

  95. Format : PGS

  96. Muxing mode : zlib

  97. Codec ID : S_HDMV/PGS

  98. Codec ID/Info : Picture based subtitle format used on BDs/HD-DVDs

  99. Language : Chinese

  100. Default : No

  101. Forced : No

  102. Menu

  103. 00:00:00.000 : en:00:00:00.000

  104. 00:11:57.216 : en:00:11:57.216

  105. 00:19:45.101 : en:00:19:45.101

  106. 00:28:09.104 : en:00:28:09.104

  107. 00:35:33.506 : en:00:35:33.506

  108. 00:44:10.398 : en:00:44:10.398

  109. 00:52:21.722 : en:00:52:21.722

  110. 01:01:33.607 : en:01:01:33.607

  111. 01:11:40.087 : en:01:11:40.087

  112. 01:20:39.501 : en:01:20:39.501

  113. 01:27:35.292 : en:01:27:35.292

  114. 01:36:29.575 : en:01:36:29.575

  115. 01:44:34.268 : en:01:44:34.268

  116. 01:53:13.412 : en:01:53:13.412

  117. 01:58:20.552 : en:01:58:20.552


复制代码



文件下载


除非特别注明,本文『星际旅行1:无限太空[国英多音轨/中英字幕].Star.Trek.2009.BluRay.1080p.x265.10bit.2Audio-MiniHD 7.63GB』来源于互联网机器人自动抓取,非本站原创。 浮游电影网不对本文拥有版权,如有侵犯,请联系邮箱:fuyouu#yandex.com[#换成@]投诉。我们会在15个工作日内删除。 但烦请转载时请标明出处:“本文转载于『浮游电影网』,原文地址:https://www.fuyouu.com/22072.html

评论吧骚年!

发表你的见解   

昵称*

E-mail*(建议输入,以便收到博主回复的提示邮件)

验证码*

您可以使用eMule或eMule Mod(Windows)、aMule(Win、Linux、Mac)等软件下载eD2k链接。。
eMule收藏集(.emulecollection)文件是您选中的所有链接的列表文件。eMule可以直接下载它们。
按住SHIFT键选择可以选中多个选择框。
可用文件名和大小选择器来选择文件。
文件名选择器帮您根据文件名称或后缀来选择文件。不分大小写。
符号使用:
和:空格( )、+
不包含:-
或:|
转义:一对英文引号("");
匹配开头:^
匹配结尾:$
例如:
选中所有名称中包含有“eMule”或“0.49c”字眼,但不包含有“exe”字眼的:emule|0.49c -exe
选中所有名称的开头是“eMule”,结尾是“0.49c”的:^emule 0.49c$
选中所有名称中带有“eMule 0.49c”的(必须是“eMule 0.49c”,中间没有别的字符,不能是“eMule fake 0.49c”),需要转义:"emule 0.49c"
大小选择器帮您根据文件大小选择文件。