当前位置: 首页 >> 日韩电影 >> 火口的两人[中文字幕].It.Feels.So.Good.2019.BluRay.1080p.x265.10bit.DDP5.1-MiniHD 6.89GB >> 正文

火口的两人[中文字幕].It.Feels.So.Good.2019.BluRay.1080p.x265.10bit.DDP5.1-MiniHD 6.89GB

2022年05月12日 22:18:00     电影发布:来源于网络     电影分类:日韩电影     评论(0)    

◎译 名 火口的两人 / 火口的二人(台) / 火口秘情 / 火山口的两个人 / It Feels So Good

◎片 名 火口のふたり

◎年 代 2019

◎产 地 日本

◎类 别 爱情 / 情色

◎语 言 日语

◎上映日期 2019-08-23(日本)

◎IMDb链接 https://www.imdb.com/title/tt10747038/

◎豆瓣评分 7.2/10 (61629人评价)

◎豆瓣链接 https://movie.douban.com/subject/30405087/

◎片 长 115分钟

◎导 演 荒井晴彦 Haruhiko Arai (id:1006692)

◎编 剧 荒井晴彦 Haruhiko Arai (id:1006692)

白石一文 Kazufumi Shiraishi (id:1431354)

◎演 员 柄本佑 Tasuku Emoto (id:1307243)

泷内公美 Kumi Takiuchi (id:1367736)

柄本明 Akira Emoto (id:1042056)

下田逸郎 (id:1434932)

川上皓市 (id:1434931)

◎简 介

「当巨大的外在世界崩坏时,人们只能在自己的小世界中寻求生存之道。直子与贤治将自我封闭在两人专属的小世界里,伴随着男女之间自然而然的肉体关系,仿佛被抛入了无法说谎的宇宙之中,当中有着快感,也袒露出人们原本拥有的特质。似乎唯有潜入这个小小宇宙之中,人们才能发挥真正的坚强」─原著作家白石一文

十天后即将迎接婚礼的直子,与重回故乡秋田的往日恋人贤治,久别重逢。直子从为了迎接新生活而整理出来的物品当中,翻出了一本相簿,相簿里是她与贤治一丝不挂地交缠着的黑白照片;往昔顺从着欲望本能共度的青春时光就此苏醒。

「只要今晚就好,让我们回到过去好吗?」在直子未婚夫归来的五天内,在刻画于肉体的愉悦记忆及纠葛的尽头,两人将看到什么风景?结合了震灾背景,包覆在漠然日常之下的浓密性爱,仿佛即将喷发的火山,迸裂出扭曲却纯洁、毅然而绝美的生命岩浆。

  1. ##### MediaInfo ######

  2. General

  3. Unique ID : 20900623150788102632135416572623239918 (0xFB95047F980E4DFEFF4C9A0FA88BAEE)

  4. Complete name : It.Feels.So.Good.2019.BluRay.1080p.x265.10bit.DDP5.1-MiniHD.mkv

  5. Format : Matroska

  6. Format version : Version 4

  7. File size : 6.89 GiB

  8. Duration : 1 h 55 min

  9. Overall bit rate : 8 522 kb/s

  10. Movie name : It Feels So Good 2019

  11. Encoded date : UTC 2022-05-11 01:46:56

  12. Writing application : mkvmerge v67.0.0 ('Under Stars') 64-bit

  13. Writing library : libebml v1.4.2 + libmatroska v1.6.4

  14. Video

  15. ID : 1

  16. Format : HEVC

  17. Format/Info : High Efficiency Video Coding

  18. Format profile : Main [email protected]@High

  19. Codec ID : V_MPEGH/ISO/HEVC

  20. Duration : 1 h 55 min

  21. Bit rate : 7 478 kb/s

  22. Width : 1 920 pixels

  23. Height : 1 038 pixels

  24. Display aspect ratio : 1.85:1

  25. Frame rate mode : Constant

  26. Frame rate : 23.976 (24000/1001/53354) FPS

  27. Color space : YUV

  28. Chroma subsampling : 4:2:0

  29. Bit depth : 10 bits

  30. Bits/(Pixel*Frame) : 0.157

  31. Stream size : 6.05 GiB (88%)

  32. Writing library : x265 3.5+2-g2b25c9ba0+94-g095f84f59:[Windows][clang 13.0.1][64 bit] Yuuki 10bit+8bit+12bit

  33. Encoding settings : rc=crf / crf=15.0000 / qcomp=0.50 / qpstep=4 / stats-write=0 / stats-read=0 / vbv-maxrate=160000 / vbv-bufsize=160000 / vbv-init=0.9 / min-vbv-fullness=50.0 / max-vbv-fullness=80.0 / crf-max=0.0 / crf-min=0.0 / no-lossless / no-cu-lossless / aq-mode=1 / aq-strength=0.80 / cbqpoffs=-2 / crqpoffs=-3 / ipratio=1.40 / pbratio=1.10 / psy-rd=1.80 / psy-rdoq=1.20 / deblock=-1:-1 / ref=5 / limit-refs=1 / limit-modes / bframes=12 / b-adapt=2 / bframe-bias=0 / b-pyramid / b-intra / weightp / weightb / min-keyint=1 / max-keyint=600 / rc-lookahead=180 / gop-lookahead=0 / NTMzNTQ=uuDQuD2mJt9fsCf / scenecut=40 / hist-scenecut=0 / radl=0 / max-cu-size=32 / min-cu-size=8 / me=3 / subme=5 / merange=57 / rdoq-level=2 / rd=3 / rdpenalty=0 / dynamic-rd=0.00 / no-rd-refine / ----- / cutree / no-sao / no-rect / no-amp / open-gop / wpp / no-pmode / no-pme / no-psnr / no-ssim / nr-intra=0 / nr-inter=0 / no-constrained-intra / no-strong-intra-smoothing / max-tu-size=32 / tu-inter-depth=3 / tu-intra-depth=3 / limit-tu=1 / qg-size=16 / qpmax=69 / qpmin=0 / ----- / cpuid=533541111039 / frame-threads=4 / numa-pools=16 / log-level=2 / input-csp=1 / input-res=1920x1038 / interlace=0 / level-idc=51 / high-tier=1 / uhd-bd=0 / no-allow-non-conformance / repeat-headers / aud / hrd / info / hash=0 / no-temporal-layers / lookahead-slices=0 / no-splice / no-intra-refresh / no-ssim-rd / signhide / no-tskip / max-merge=3 / temporal-mvp / no-frame-dup / no-hme / no-analyze-src-pics / no-sao-non-deblock / selective-sao=0 / no-early-skip / rskip / no-fast-intra / no-tskip-fast / no-splitrd-skip / zone-count=0 / no-strict-cbr / no-rc-grain / no-const-vbv / sar=0 / overscan=0 / videoformat=5 / range=0 / colorprim=2 / transfer=2 / colormatrix=1 / chromaloc=0 / display-window=0 / cll=0,0 / min-luma=0 / max-luma=1023 / log2-max-poc-lsb=8 / vui-timing-info / vui-hrd-info / slices=1 / no-opt-qp-pps / no-opt-ref-list-length-pps / no-multi-pass-opt-rps / scenecut-bias=0.05 / hist-threshold=0.03 / no-opt-cu-delta-qp / no-aq-motion / no-hdr10 / no-hdr10-opt / no-dhdr10-opt / no-idr-recovery-sei / analysis-reuse-level=0 / analysis-save-reuse-level=0 / analysis-load-reuse-level=0 / scale-factor=0 / refine-intra=0 / refine-inter=0 / refine-mv=1 / refine-ctu-distortion=0 / no-limit-sao / ctu-info=0 / no-lowpass-dct / refine-analysis-type=0 / copy-pic=1 / max-ausize-factor=1.0 / no-dynamic-refine / no-single-sei / no-hevc-aq / no-svt / no-field / qp-adaptation-range=1.00 / scenecut-aware-qp=0conformance-window-offsets / right=0 / bottom=0 / NTMzNTQ= / decoder-max-rate=0 / no-vbv-live-multi-pass

  34. Default : Yes

  35. Forced : No

  36. Color range : Limited

  37. Matrix coefficients : BT.709

  38. Audio

  39. ID : 2

  40. Format : E-AC-3

  41. Format/Info : Enhanced AC-3

  42. Commercial name : Dolby Digital Plus

  43. Codec ID : A_EAC3

  44. Duration : 1 h 55 min

  45. Bit rate mode : Constant

  46. Bit rate : 1 024 kb/s

  47. Channel(s) : 6 channels

  48. Channel layout : L R C LFE Ls Rs

  49. Sampling rate : 48.0 kHz

  50. Frame rate : 31.250 FPS (1536 SPF)

  51. Compression mode : Lossy

  52. Stream size : 848 MiB (12%)

  53. Language : Japanese

  54. Service kind : Complete Main

  55. Default : Yes

  56. Forced : No

  57. Text #1

  58. ID : 3

  59. Format : PGS

  60. Muxing mode : zlib

  61. Codec ID : S_HDMV/PGS

  62. Codec ID/Info : Picture based subtitle format used on BDs/HD-DVDs

  63. Duration : 1 h 54 min

  64. Bit rate : 18.5 kb/s

  65. Count of elements : 1993

  66. Stream size : 15.1 MiB (0%)

  67. Title : zh-Hans

  68. Language : Chinese

  69. Default : Yes

  70. Forced : No

  71. Text #2

  72. ID : 4

  73. Format : PGS

  74. Muxing mode : zlib

  75. Codec ID : S_HDMV/PGS

  76. Codec ID/Info : Picture based subtitle format used on BDs/HD-DVDs

  77. Duration : 1 h 54 min

  78. Bit rate : 18.7 kb/s

  79. Count of elements : 1993

  80. Stream size : 15.3 MiB (0%)

  81. Title : zh-Hant

  82. Language : Chinese

  83. Default : No

  84. Forced : No

  85. Menu

  86. 00:00:00.000 : :Chapter 01

  87. 00:15:25.341 : :Chapter 02

  88. 00:26:55.488 : :Chapter 03

  89. 00:41:37.953 : :Chapter 04

  90. 00:53:09.519 : :Chapter 05

  91. 01:12:21.920 : :Chapter 06

  92. 01:32:00.181 : :Chapter 07

  93. 01:48:56.655 : :Chapter 08


复制代码



文件下载


除非特别注明,本文『火口的两人[中文字幕].It.Feels.So.Good.2019.BluRay.1080p.x265.10bit.DDP5.1-MiniHD 6.89GB』来源于互联网机器人自动抓取,非本站原创。 浮游电影网不对本文拥有版权,如有侵犯,请联系邮箱:fuyouu#yandex.com[#换成@]投诉。我们会在15个工作日内删除。 但烦请转载时请标明出处:“本文转载于『浮游电影网』,原文地址:https://www.fuyouu.com/22071.html

评论吧骚年!

发表你的见解   

昵称*

E-mail*(建议输入,以便收到博主回复的提示邮件)

验证码*

您可以使用eMule或eMule Mod(Windows)、aMule(Win、Linux、Mac)等软件下载eD2k链接。。
eMule收藏集(.emulecollection)文件是您选中的所有链接的列表文件。eMule可以直接下载它们。
按住SHIFT键选择可以选中多个选择框。
可用文件名和大小选择器来选择文件。
文件名选择器帮您根据文件名称或后缀来选择文件。不分大小写。
符号使用:
和:空格( )、+
不包含:-
或:|
转义:一对英文引号("");
匹配开头:^
匹配结尾:$
例如:
选中所有名称中包含有“eMule”或“0.49c”字眼,但不包含有“exe”字眼的:emule|0.49c -exe
选中所有名称的开头是“eMule”,结尾是“0.49c”的:^emule 0.49c$
选中所有名称中带有“eMule 0.49c”的(必须是“eMule 0.49c”,中间没有别的字符,不能是“eMule fake 0.49c”),需要转义:"emule 0.49c"
大小选择器帮您根据文件大小选择文件。