当前位置: 首页 >> 国产电影 >> 女房客[国语配音/中文字幕].Female.Tenant.2020.2160p.WEB-DL.H265.AAC-CTRLWEB 5.15GB >> 正文

女房客[国语配音/中文字幕].Female.Tenant.2020.2160p.WEB-DL.H265.AAC-CTRLWEB 5.15GB

2022年05月12日 22:15:14     电影发布:来源于网络     电影分类:国产电影     评论(0)    

◎译 名 女房客

◎年 代 2020

◎产 地 中国大陆

◎类 别 剧情 / 爱情

◎语 言 汉语普通话

◎上映日期 2020-04-29(中国大陆)

◎IMDb链接 https://www.imdb.com/title//

◎豆瓣链接 https://movie.douban.com/subject/35061929/

◎片 长 65分钟

◎演 员 张喜来 Xilai Zhang (id:1350001)

◎简 介

一个穷困落魄,却极端努力的龙套演员马道成,劳累了一天后,回到自己的出租屋洗澡准备睡觉,当他走进出租屋的时候,却发现家里来了一个刁蛮任性不讲理的女孩,这个漂亮的女孩要求以后也住在这里。同在一个屋檐下的俩个人究竟会发生什么样的故事,这个女孩又有什么样的动机呢?

  1. ##### MediaInfo ######

  2. General

  3. Complete name : Female.Tenant.2020.2160p.WEB-DL.H265.AAC-CTRLWEB.mp4

  4. Format : MPEG-4

  5. Format profile : Base Media

  6. Codec ID : isom (isom/iso2/mp41)

  7. File size : 5.15 GiB

  8. Duration : 1 h 5 min

  9. Overall bit rate : 11.3 Mb/s

  10. Recorded date : 2022-05-11T12:38:00.0081061+08:00

  11. Writing application : Lavf59.16.100

  12. Video

  13. ID : 1

  14. Format : HEVC

  15. Format/Info : High Efficiency Video Coding

  16. Format profile : [email protected]@Main

  17. Codec ID : hev1

  18. Codec ID/Info : High Efficiency Video Coding

  19. Duration : 1 h 5 min

  20. Bit rate : 11.1 Mb/s

  21. Width : 3 840 pixels

  22. Height : 1 632 pixels

  23. Display aspect ratio : 2.35:1

  24. Frame rate mode : Constant

  25. Frame rate : 25.000 FPS

  26. Color space : YUV

  27. Chroma subsampling : 4:2:0

  28. Bit depth : 8 bits

  29. Bits/(Pixel*Frame) : 0.071

  30. Stream size : 5.06 GiB (98%)

  31. Codec configuration box : hvcC

  32. Audio

  33. ID : 2

  34. Format : AAC LC

  35. Format/Info : Advanced Audio Codec Low Complexity

  36. Codec ID : mp4a-40-2

  37. Duration : 1 h 5 min

  38. Bit rate mode : Constant

  39. Bit rate : 192 kb/s

  40. Channel(s) : 2 channels

  41. Channel layout : L R

  42. Sampling rate : 44.1 kHz

  43. Frame rate : 43.066 FPS (1024 SPF)

  44. Compression mode : Lossy

  45. Stream size : 88.5 MiB (2%)

  46. Default : Yes

  47. Alternate group : 1


复制代码



文件下载


除非特别注明,本文『女房客[国语配音/中文字幕].Female.Tenant.2020.2160p.WEB-DL.H265.AAC-CTRLWEB 5.15GB』来源于互联网机器人自动抓取,非本站原创。 浮游电影网不对本文拥有版权,如有侵犯,请联系邮箱:fuyouu#yandex.com[#换成@]投诉。我们会在15个工作日内删除。 但烦请转载时请标明出处:“本文转载于『浮游电影网』,原文地址:https://www.fuyouu.com/22069.html

评论吧骚年!

发表你的见解   

昵称*

E-mail*(建议输入,以便收到博主回复的提示邮件)

验证码*

您可以使用eMule或eMule Mod(Windows)、aMule(Win、Linux、Mac)等软件下载eD2k链接。。
eMule收藏集(.emulecollection)文件是您选中的所有链接的列表文件。eMule可以直接下载它们。
按住SHIFT键选择可以选中多个选择框。
可用文件名和大小选择器来选择文件。
文件名选择器帮您根据文件名称或后缀来选择文件。不分大小写。
符号使用:
和:空格( )、+
不包含:-
或:|
转义:一对英文引号("");
匹配开头:^
匹配结尾:$
例如:
选中所有名称中包含有“eMule”或“0.49c”字眼,但不包含有“exe”字眼的:emule|0.49c -exe
选中所有名称的开头是“eMule”,结尾是“0.49c”的:^emule 0.49c$
选中所有名称中带有“eMule 0.49c”的(必须是“eMule 0.49c”,中间没有别的字符,不能是“eMule fake 0.49c”),需要转义:"emule 0.49c"
大小选择器帮您根据文件大小选择文件。