当前位置: 首页 >> 海外电影 >> 意大利人在俄罗斯的奇遇[简繁英字幕].1974.BluRay.1080p.x265.10bit.DDP5.1-MiniHD 7.77GB >> 正文

意大利人在俄罗斯的奇遇[简繁英字幕].1974.BluRay.1080p.x265.10bit.DDP5.1-MiniHD 7.77GB

2022年05月12日 22:10:52     电影发布:来源于网络     电影分类:海外电影     评论(0)    

◎译 名 意大利人在俄罗斯的奇遇 / Neveroyatnye priklyucheniya italyantsev v Rossii / Unbelievable Adventures of Italians in Russia

◎片 名 Невероятные приключения итальянцев в России

◎年 代 1974

◎产 地 意大利 / 苏联

◎类 别 喜剧 / 冒险

◎语 言 俄语

◎上映日期 1974-01-31

◎IMDb链接 https://www.imdb.com/title/tt0070439/

◎豆瓣评分 8.5/10 (12558人评价)

◎豆瓣链接 https://movie.douban.com/subject/1301859/

◎片 长 104分钟

◎导 演 埃利达尔·梁赞诺夫 Eldar Ryazanov (id:1041833)

佛朗哥·普罗斯佩里 Franco Prosperi (id:1333184)

弗兰克·普罗斯佩里 Franco Prosperi (id:1050969)

◎编 剧 埃利达尔·梁赞诺夫 Eldar Ryazanov (id:1041833)

◎演 员 安德烈·米罗诺夫 Andrei Mironov (id:1032870)

尼内托·达沃利 Ninetto Davoli (id:1028408)

安冬尼娅·桑提利 Antonia Santilli (id:1023855)

阿利耶罗·隆歇热 Alighiero Noschese (id:1134641)

塔诺·希玛罗萨 Tano Cimarosa (id:1016941)

◎简 介

呼啸而来的救护车拉来了病危的老太太,她漂亮的孙女奥利卡(安东尼娅 桑提利 Antonia Santilli 饰)匆忙赶来医院,老太太去世前告诉孙女一个天大的秘密,多年前一箱珠宝埋在俄罗斯。却被在病房里等妻子生孩子的玛比奥索(塔诺·希玛罗萨 Tano Cimarosa 饰),开救护车的司机安东尼奥(阿利耶罗·隆歇热 Alighiero Noschese 饰)和比杰瑞(尼纳托·达沃力 Ninetto Davoli 饰),断了腿的瘸子和医生都听到了。于是,都坐上了去俄罗斯旅游的飞机展开了寻宝之旅。在飞机上他们不期而遇,玛比奥索把医生的护照偷拿了出来塞进马桶里,不料护照却飘出了窗外贴在窗户上,情急之下他用双脚踹烂玻璃,失去密封的飞机失控了他卡在了窗户中。帅气的导游瓦西列夫(安德雷·米罗诺夫 Andrei Mironov 饰)来接他们,大伙分头行动,上演了滑稽...

  1. ##### MediaInfo ######

  2. General

  3. Unique ID : 300145269475128483094634594255465305589 (0xE1CDE04F9D8256825719D8C9AC1B55F5)

  4. Complete name : Die.unglaubwuerdigen.Abenteuer.der.Italiener.in.Russland.1974.BluRay.1080p.x265.10bit.DDP5.1-MiniHD.mkv

  5. Format : Matroska

  6. Format version : Version 4

  7. File size : 7.77 GiB

  8. Duration : 1 h 42 min

  9. Overall bit rate : 10.9 Mb/s

  10. Movie name : Die.unglaubwuerdigen.Abenteuer.der.Italiener.in.Russland.1974.BluRay.1080p.x265.10bit.DDP5.1.MNHD-FRDS

  11. Encoded date : UTC 2022-05-09 01:31:35

  12. Writing application : mkvmerge v65.0.0 ('Too Much') 64-bit

  13. Writing library : libebml v1.4.2 + libmatroska v1.6.4

  14. Video

  15. ID : 1

  16. Format : HEVC

  17. Format/Info : High Efficiency Video Coding

  18. Format profile : Main [email protected]@High

  19. Codec ID : V_MPEGH/ISO/HEVC

  20. Duration : 1 h 42 min

  21. Bit rate : 9 847 kb/s

  22. Width : 1 482 pixels

  23. Height : 1 080 pixels

  24. Display aspect ratio : 1.372

  25. Frame rate mode : Constant

  26. Frame rate : 23.976 (24000/1001/53354) FPS

  27. Color space : YUV

  28. Chroma subsampling : 4:2:0

  29. Bit depth : 10 bits

  30. Bits/(Pixel*Frame) : 0.257

  31. Stream size : 7.04 GiB (91%)

  32. Writing library : x265 3.5+2-2b25c9ba0:[Linux][GCC 9.3.0][64 bit] 10bit

  33. Encoding settings : cpuid=533541111039 / frame-threads=3 / numa-pools=11 / wpp / pmode / no-pme / no-psnr / no-ssim / log-level=2 / input-csp=1 / input-res=1482x1080 / interlace=0 / total-frames=147192 / level-idc=0 / high-tier=1 / uhd-bd=0 / ref=4 / no-allow-non-conformance / no-repeat-headers / annexb / no-aud / no-hrd / info / hash=0 / no-temporal-layers / no-open-gop / min-keyint=1 / keyint=250 / gop-lookahead=0 / bframes=6 / b-adapt=2 / b-pyramid / bframe-bias=0 / rc-lookahead=80 / lookahead-slices=0 / NTMzNTQ=uuDQuD2mJt9fsCf / scenecut=40 / hist-scenecut=0 / radl=0 / no-splice / no-intra-refresh / ctu=32 / min-cu-size=8 / no-rect / no-amp / max-tu-size=32 / tu-inter-depth=4 / tu-intra-depth=4 / limit-tu=0 / rdoq-level=2 / dynamic-rd=0.00 / no-ssim-rd / signhide / no-tskip / nr-intra=0 / nr-inter=0 / no-constrained-intra / no-strong-intra-smoothing / max-merge=5 / limit-refs=0 / no-limit-modes / me=3 / subme=7 / merange=57 / temporal-mvp / no-frame-dup / no-hme / weightp / weightb / no-analyze-src-pics / deblock=-3:-3 / no-sao / no-sao-non-deblock / rd=4 / selective-sao=0 / no-early-skip / no-rskip / no-fast-intra / no-tskip-fast / no-cu-lossless / b-intra / no-splitrd-skip / rdpenalty=0 / psy-rd=1.50 / psy-rdoq=1.00 / no-rd-refine / no-lossless / cbqpoffs=-2 / crqpoffs=-2 / rc=crf / crf=24.0 / qcomp=0.65 / qpstep=4 / stats-write=0 / stats-read=0 / vbv-maxrate=160000 / vbv-bufsize=160000 / vbv-init=0.9 / min-vbv-fullness=50.0 / max-vbv-fullness=80.0 / crf-max=0.0 / crf-min=0.0 / ipratio=1.30 / pbratio=1.20 / aq-mode=1 / aq-strength=1.00 / no-cutree / zone-count=0 / no-strict-cbr / qg-size=8 / no-rc-grain / qpmax=69 / qpmin=0 / no-const-vbv / sar=0 / overscan=0 / videoformat=5 / range=0 / colorprim=1 / transfer=1 / colormatrix=1 / chromaloc=0 / display-window=0 / cll=0,0 / min-luma=0 / max-luma=1023 / log2-max-poc-lsb=8 / vui-timing-info / vui-hrd-info / slices=1 / no-opt-qp-pps / no-opt-ref-list-length-pps / no-multi-pass-opt-rps / scenecut-bias=0.05 / hist-threshold=0.03 / no-opt-cu-delta-qp / no-aq-motion / no-hdr10 / no-hdr10-opt / no-dhdr10-opt / no-idr-recovery-sei / analysis-reuse-level=0 / analysis-save-reuse-level=0 / analysis-load-reuse-level=0 / scale-factor=0 / refine-intra=0 / refine-inter=0 / refine-mv=1 / refine-ctu-distortion=0 / no-limit-sao / ctu-info=0 / no-lowpass-dct / refine-analysis-type=0 / copy-pic=1 / max-ausize-factor=1.0 / no-dynamic-refine / no-single-sei / no-hevc-aq / no-svt / no-field / qp-adaptation-range=1.00 / scenecut-aware-qp=0conformance-window-offsets / right=0 / bottom=0 / NTMzNTQ= / decoder-max-rate=0 / no-vbv-live-multi-pass

  34. Default : Yes

  35. Forced : No

  36. Color range : Limited

  37. Color primaries : BT.709

  38. Transfer characteristics : BT.709

  39. Matrix coefficients : BT.709

  40. Audio

  41. ID : 2

  42. Format : E-AC-3

  43. Format/Info : Enhanced AC-3

  44. Commercial name : Dolby Digital Plus

  45. Codec ID : A_EAC3

  46. Duration : 1 h 42 min

  47. Bit rate mode : Constant

  48. Bit rate : 1 024 kb/s

  49. Channel(s) : 6 channels

  50. Channel layout : L R C LFE Ls Rs

  51. Sampling rate : 48.0 kHz

  52. Frame rate : 31.250 FPS (1536 SPF)

  53. Compression mode : Lossy

  54. Stream size : 749 MiB (9%)

  55. Title : Russian

  56. Language : Russian

  57. Service kind : Complete Main

  58. Default : Yes

  59. Forced : No

  60. Text #1

  61. ID : 3

  62. Format : UTF-8

  63. Codec ID : S_TEXT/UTF8

  64. Codec ID/Info : UTF-8 Plain Text

  65. Duration : 1 h 39 min

  66. Bit rate : 55 b/s

  67. Count of elements : 1532

  68. Stream size : 40.2 KiB (0%)

  69. Title : English

  70. Language : English

  71. Default : No

  72. Forced : No

  73. Text #2

  74. ID : 4

  75. Format : UTF-8

  76. Codec ID : S_TEXT/UTF8

  77. Codec ID/Info : UTF-8 Plain Text

  78. Duration : 1 h 39 min

  79. Bit rate : 51 b/s

  80. Count of elements : 1534

  81. Stream size : 37.2 KiB (0%)

  82. Title : Chinese(Simplified)

  83. Language : Chinese

  84. Default : No

  85. Forced : No

  86. Text #3

  87. ID : 5

  88. Format : UTF-8

  89. Codec ID : S_TEXT/UTF8

  90. Codec ID/Info : UTF-8 Plain Text

  91. Duration : 1 h 39 min

  92. Bit rate : 51 b/s

  93. Count of elements : 1534

  94. Stream size : 37.2 KiB (0%)

  95. Title : Chinese(Traditional)

  96. Language : Chinese

  97. Default : No

  98. Forced : No

  99. Menu

  100. 00:00:00.000 : en:Chapter 01

  101. 00:10:43.893 : en:Chapter 02

  102. 00:20:53.586 : en:Chapter 03

  103. 00:30:13.937 : en:Chapter 04

  104. 00:41:50.842 : en:Chapter 05

  105. 00:49:54.325 : en:Chapter 06

  106. 00:56:53.076 : en:Chapter 07

  107. 01:05:03.024 : en:Chapter 08

  108. 01:11:14.771 : en:Chapter 09

  109. 01:19:27.012 : en:Chapter 10

  110. 01:26:05.869 : en:Chapter 11

  111. 01:36:27.323 : en:Chapter 12


复制代码



文件下载


除非特别注明,本文『意大利人在俄罗斯的奇遇[简繁英字幕].1974.BluRay.1080p.x265.10bit.DDP5.1-MiniHD 7.77GB』来源于互联网机器人自动抓取,非本站原创。 浮游电影网不对本文拥有版权,如有侵犯,请联系邮箱:fuyouu#yandex.com[#换成@]投诉。我们会在15个工作日内删除。 但烦请转载时请标明出处:“本文转载于『浮游电影网』,原文地址:https://www.fuyouu.com/22065.html

评论吧骚年!

发表你的见解   

昵称*

E-mail*(建议输入,以便收到博主回复的提示邮件)

验证码*

您可以使用eMule或eMule Mod(Windows)、aMule(Win、Linux、Mac)等软件下载eD2k链接。。
eMule收藏集(.emulecollection)文件是您选中的所有链接的列表文件。eMule可以直接下载它们。
按住SHIFT键选择可以选中多个选择框。
可用文件名和大小选择器来选择文件。
文件名选择器帮您根据文件名称或后缀来选择文件。不分大小写。
符号使用:
和:空格( )、+
不包含:-
或:|
转义:一对英文引号("");
匹配开头:^
匹配结尾:$
例如:
选中所有名称中包含有“eMule”或“0.49c”字眼,但不包含有“exe”字眼的:emule|0.49c -exe
选中所有名称的开头是“eMule”,结尾是“0.49c”的:^emule 0.49c$
选中所有名称中带有“eMule 0.49c”的(必须是“eMule 0.49c”,中间没有别的字符,不能是“eMule fake 0.49c”),需要转义:"emule 0.49c"
大小选择器帮您根据文件大小选择文件。