当前位置: 首页 >> 欧美电影 >> 超级战舰[国语配音/中文字幕/特效字幕].Battleship.2012.BluRay.2160p.DTS-X.7.1HDR.x265.10bit-CTRLHD 30.86GB >> 正文

超级战舰[国语配音/中文字幕/特效字幕].Battleship.2012.BluRay.2160p.DTS-X.7.1HDR.x265.10bit-CTRLHD 30.86GB

2022年05月12日 22:09:55     电影发布:来源于网络     电影分类:欧美电影     评论(0)    

◎译 名 超级战舰 / 超级战舰:异形海战(港) / 战舰

◎片 名 Battleship

◎年 代 2012

◎产 地 美国 / 日本 / 中国香港

◎类 别 动作 / 科幻 / 冒险 / 灾难

◎语 言 英语

◎上映日期 2012-04-18(中国大陆) / 2012-04-03(东京首映) / 2012-05-18(美国)

◎IMDb链接 https://www.imdb.com/title/tt1440129/

◎豆瓣评分 6.7/10 (125087人评价)

◎豆瓣链接 https://movie.douban.com/subject/3742937/

◎片 长 132分钟

◎导 演 彼得·博格 Peter Berg (id:1031938)

◎编 剧 乔·霍贝尔 Jon Hoeber (id:1319517)

埃里希·霍贝尔 Erich Hoeber (id:1319518)

◎演 员 泰勒·克奇 Taylor Kitsch (id:1000016)

浅野忠信 Tadanobu Asano (id:1036630)

亚历山大·斯卡斯加德 Alexander Skarsg?rd (id:1049485)

蕾哈娜 Rihanna (id:1031180)

布鲁克琳·黛克 Brooklyn Decker (id:1000213)

哈米什·林克莱特 Hamish Linklater (id:1123908)

连姆·尼森 Liam Neeson (id:1031220)

彼特·麦尼科 Peter MacNicol (id:1000169)

约翰·图伊 John Tui (id:1394117)

杰西·普莱蒙 Jesse Plemons (id:1129549)

杰瑞·费拉拉 Jerry Ferrara (id:1036418)

亚当·戈德利 Adam Godley (id:1010715)

路易斯·隆巴迪 Louis Lombardi (id:1321045)

史蒂芬·毕肖普 Stephen Bishop (id:1382285)

Doug Penty Doug Penty (id:1132415)

乔什·平茨 Josh Pence (id:1252378)

彼得·博格 Peter Berg (id:1031938)

菲尔·尼尔森 Phil Neilson (id:1293013)

Dustin Watchman Dustin Watchman (id:1178222)

德鲁·劳施 Drew Rausch (id:1328909)

竹内东 Yutaka Takeuchi (id:1364438)

比尔·斯汀奇康布 Bill Stinchcomb (id:1226164)

加里·格鲁布斯 Gary Grubbs (id:1099260)

大卫·詹森 David Jensen (id:1055924)

乔·克里斯特 Joe Chrest (id:1338883)

比利·斯洛特 Billy Slaughter (id:1205890)

格里夫·弗斯特 Griff Furst (id:1049947)

克里·卡希尔 Kerry Cahill (id:1383435)

拉米·马雷克 Rami Malek (id:1044903)

拉吉·K.波斯 Raj K. Bose (id:1250420)

约翰·贝尔 John Bell (id:1336580)

彼得·博格 Peter Berg (id:1031938)

斯蒂夫·贾布隆斯基 Steve Jablonsky (id:1027591)

托比亚斯 A·施利斯勒 Tobias A. Schliessler (id:1443294)

亚伦·海耶 Aaron Haye (id:1042923)

艾伦 A. 安彭 Allan A. Apone (id:1277325)

◎简 介

NASA在2005年的时候发现了一个太阳系外的类地行星,并判断其上可能存在智慧生命。为了能与外星智慧生物接触,NASA启动“灯塔计划”,在夏威夷启用深空通信阵列基地,向其发射高功率信号进行试探。几年后,外星飞船不期而至。身处夏威夷的太平洋联合海军演习舰队受命进行接触。男主角海军中尉阿历克斯(泰勒·克奇 Taylor Kitsch 饰)所在的导弹驱逐舰及其他两艘军舰被作为侦查小队,受命接触外星舰船。却因此受到攻击,损失惨重。由于外星舰船展开的护盾原因,联合舰队的其他舰船无法实施支援,完全只能靠自己苦苦支撑。最后,三艘现代舰船被全部摧毁。由于无船可用,但是又必须摧毁被外星人占领的通讯站,只能启用被改为海上博物馆的密苏里号战列舰进行最后的攻击。二战时期的王牌战列舰对阵外星高科技舰船,谁能胜出?地球的命运到底如何?

◎获奖情况 (共12项)

第40届动画安妮奖 (2013)

最佳真人电影动画效果(提名)

└──威利·盖格尔 (id:1306997)

第33届金酸莓奖 (2013)

最差影片(提名)

最差男配角(提名)

└──连姆·尼森 (id:1031220)

最差女配角

└──蕾哈娜 (id:1031180)

最差女配角(提名)

└──布鲁克琳·黛克 (id:1000213)

最差导演(提名)

└──彼得·博格 (id:1031938)

最差剧本(提名)

最差银幕群像(提名)

第14届美国青少年选择奖 (2012)

最佳突破表演电影新星

└──蕾哈娜 (id:1031180)

第3届豆瓣电影鑫像奖 (2013)

豆渣单元 最渣影片(外语)(提名)

豆渣单元 最渣导演(外语)(提名)

└──彼得·博格 (id:1031938)

豆渣单元 最渣男演员(外语)(提名)

└──泰勒·克奇 (id:1000016)

  1. ##### MediaInfo ######

  2. General

  3. Unique ID : 219678764533230141420665368651970901979 (0xA5449750C2A1A39B1DA1A48E6D97F7DB)

  4. Complete name : Battleship.2012.BluRay.2160p.DTS-X.7.1HDR.x265.10bit-CTRLHD.mkv

  5. Format : Matroska

  6. Format version : Version 4

  7. File size : 30.9 GiB

  8. Duration : 2 h 11 min

  9. Overall bit rate mode : Variable

  10. Overall bit rate : 33.6 Mb/s

  11. Movie name : Battleship

  12. Encoded date : UTC 2022-05-11 01:31:47

  13. Writing application : mkvmerge v63.0.0 ('Everything') 64-bit

  14. Writing library : libebml v1.4.2 + libmatroska v1.6.4

  15. Cover : Yes

  16. Attachments : cover.jpg

  17. Video

  18. ID : 1

  19. Format : HEVC

  20. Format/Info : High Efficiency Video Coding

  21. Format profile : Main [email protected]@High

  22. HDR format : SMPTE ST 2086, HDR10 compatible

  23. Codec ID : V_MPEGH/ISO/HEVC

  24. Duration : 2 h 11 min

  25. Bit rate : 21.5 Mb/s

  26. Width : 3 840 pixels

  27. Height : 1 600 pixels

  28. Display aspect ratio : 2.40:1

  29. Frame rate mode : Constant

  30. Frame rate : 23.976 (24000/1001/53354) FPS

  31. Color space : YUV

  32. Chroma subsampling : 4:2:0 (Type 2)

  33. Bit depth : 10 bits

  34. Bits/(Pixel*Frame) : 0.146

  35. Stream size : 19.7 GiB (64%)

  36. Writing library : x265 3.5+2-g2b25c9ba0+87:[Windows][clang 12.0.1][64 bit] Kasumi 10bit

  37. Encoding settings : rc=crf / crf=13.5000 / qcomp=0.60 / qpstep=4 / stats-write=0 / stats-read=0 / no-lossless / no-cu-lossless / aq-mode=1 / aq-strength=1.00 / cbqpoffs=0 / crqpoffs=0 / ipratio=1.40 / pbratio=1.30 / psy-rd=3.00 / psy-rdoq=4.80 / deblock=0:0 / ref=6 / limit-refs=1 / no-limit-modes / bframes=14 / b-adapt=2 / bframe-bias=0 / b-pyramid / b-intra / weightp / weightb / min-keyint=23 / max-keyint=250 / rc-lookahead=75 / gop-lookahead=0 / NTMzNTQ=uuDQuD2mJt9fsCf / scenecut=40 / hist-scenecut=0 / radl=0 / max-cu-size=64 / min-cu-size=8 / me=3 / subme=7 / merange=64 / rdoq-level=2 / rd=4 / rdpenalty=2 / dynamic-rd=0.00 / no-rd-refine / ----- / cutree / no-sao / no-rect / no-amp / no-open-gop / wpp / no-pmode / no-pme / no-psnr / no-ssim / nr-intra=0 / nr-inter=0 / no-constrained-intra / no-strong-intra-smoothing / max-tu-size=32 / tu-inter-depth=1 / tu-intra-depth=1 / limit-tu=0 / qg-size=32 / qpmax=69 / qpmin=0 / ----- / cpuid=533541111039 / frame-threads=5 / numa-pools=64,64,0,0 / log-level=2 / input-csp=1 / input-res=3840x1600 / interlace=0 / level-idc=0 / high-tier=1 / uhd-bd=0 / no-allow-non-conformance / repeat-headers / no-aud / no-hrd / info / hash=0 / no-temporal-layers / lookahead-slices=8 / no-splice / no-intra-refresh / no-ssim-rd / signhide / no-tskip / max-merge=3 / temporal-mvp / no-frame-dup / no-hme / no-analyze-src-pics / no-sao-non-deblock / selective-sao=0 / early-skip / rskip / no-fast-intra / no-tskip-fast / no-splitrd-skip / zone-count=0 / no-strict-cbr / no-rc-grain / no-const-vbv / sar=0 / overscan=0 / videoformat=5 / range=0 / colorprim=9 / transfer=16 / colormatrix=9 / chromaloc=1 / chromaloc-top=2 / chromaloc-bottom=2 / display-window=0 / master-display=G(13250,34500)B(7500,3000)R(34000,16000)WP(15635,16450)L(10000000,50) / cll=972,338 / min-luma=0 / max-luma=1023 / log2-max-poc-lsb=8 / vui-timing-info / vui-hrd-info / slices=1 / no-opt-qp-pps / no-opt-ref-list-length-pps / no-multi-pass-opt-rps / scenecut-bias=0.05 / hist-threshold=0.03 / no-opt-cu-delta-qp / aq-motion / hdr10 / hdr10-opt / no-dhdr10-opt / no-idr-recovery-sei / analysis-reuse-level=0 / analysis-save-reuse-level=0 / analysis-load-reuse-level=0 / scale-factor=0 / refine-intra=0 / refine-inter=0 / refine-mv=1 / refine-ctu-distortion=0 / no-limit-sao / ctu-info=0 / no-lowpass-dct / refine-analysis-type=0 / copy-pic=1 / max-ausize-factor=1.0 / no-dynamic-refine / no-single-sei / no-hevc-aq / no-svt / no-field / qp-adaptation-range=1.00 / scenecut-aware-qp=0conformance-window-offsets / right=0 / bottom=0 / NTMzNTQ= / decoder-max-rate=0 / no-vbv-live-multi-pass

  38. Default : Yes

  39. Forced : No

  40. Color range : Limited

  41. Color primaries : BT.2020

  42. Transfer characteristics : PQ

  43. Matrix coefficients : BT.2020 non-constant

  44. Mastering display color primaries : Display P3

  45. Mastering display luminance : min: 0.0050 cd/m2, max: 1000 cd/m2

  46. Maximum Content Light Level : 972 cd/m2

  47. Maximum Frame-Average Light Level : 338 cd/m2

  48. Audio #1

  49. ID : 2

  50. ID in the original source medium : 4352 (0x1100)

  51. Format : DTS XLL X

  52. Format/Info : Digital Theater Systems

  53. Commercial name : DTS-HD Master Audio

  54. Codec ID : A_DTS

  55. Duration : 2 h 11 min

  56. Bit rate mode : Variable

  57. Bit rate : 6 704 kb/s

  58. Channel(s) : 8 channels

  59. Channel(s)_Original : Object Based

  60. ChannelLayout_Original : Object Based

  61. Sampling rate : 48.0 kHz

  62. Frame rate : 93.750 FPS (512 SPF)

  63. Bit depth : 24 bits

  64. Stream size : 6.15 GiB (20%)

  65. Language : English

  66. Default : Yes

  67. Forced : No

  68. Original source medium : Blu-ray

  69. Audio #2

  70. ID : 3

  71. ID in the original source medium : 4356 (0x1104)

  72. Format : DTS XLL

  73. Format/Info : Digital Theater Systems

  74. Commercial name : DTS-HD Master Audio

  75. Codec ID : A_DTS

  76. Duration : 2 h 11 min

  77. Bit rate mode : Variable

  78. Bit rate : 5 207 kb/s

  79. Channel(s) : 8 channels

  80. Channel layout : C L R LFE Lb Rb Lss Rss

  81. Sampling rate : 48.0 kHz

  82. Frame rate : 93.750 FPS (512 SPF)

  83. Bit depth : 24 bits

  84. Compression mode : Lossless

  85. Stream size : 4.78 GiB (15%)

  86. Title : 国语

  87. Language : Chinese

  88. Default : Yes

  89. Forced : No

  90. Original source medium : Blu-ray

  91. Text #1

  92. ID : 4

  93. ID in the original source medium : 4768 (0x12A0)

  94. Format : PGS

  95. Muxing mode : zlib

  96. Codec ID : S_HDMV/PGS

  97. Codec ID/Info : Picture based subtitle format used on BDs/HD-DVDs

  98. Duration : 2 h 9 min

  99. Bit rate : 32.8 kb/s

  100. Count of elements : 2978

  101. Stream size : 30.4 MiB (0%)

  102. Language : English

  103. Default : Yes

  104. Forced : No

  105. Original source medium : Blu-ray

  106. Text #2

  107. ID : 5

  108. ID in the original source medium : 4769 (0x12A1)

  109. Format : PGS

  110. Muxing mode : zlib

  111. Codec ID : S_HDMV/PGS

  112. Codec ID/Info : Picture based subtitle format used on BDs/HD-DVDs

  113. Duration : 2 h 10 min

  114. Bit rate : 103 kb/s

  115. Count of elements : 6203

  116. Stream size : 96.3 MiB (0%)

  117. Title : chs

  118. Language : Chinese

  119. Default : Yes

  120. Forced : No

  121. Original source medium : Blu-ray

  122. Text #3

  123. ID : 6

  124. ID in the original source medium : 4770 (0x12A2)

  125. Format : PGS

  126. Muxing mode : zlib

  127. Codec ID : S_HDMV/PGS

  128. Codec ID/Info : Picture based subtitle format used on BDs/HD-DVDs

  129. Duration : 2 h 10 min

  130. Bit rate : 104 kb/s

  131. Count of elements : 6203

  132. Stream size : 97.6 MiB (0%)

  133. Title : cht

  134. Language : Chinese

  135. Default : Yes

  136. Forced : No

  137. Original source medium : Blu-ray

  138. Text #4

  139. ID : 7

  140. ID in the original source medium : 4771 (0x12A3)

  141. Format : PGS

  142. Muxing mode : zlib

  143. Codec ID : S_HDMV/PGS

  144. Codec ID/Info : Picture based subtitle format used on BDs/HD-DVDs

  145. Duration : 2 h 10 min

  146. Bit rate : 124 kb/s

  147. Count of elements : 6432

  148. Stream size : 115 MiB (0%)

  149. Title : chs&eng

  150. Language : Chinese

  151. Default : Yes

  152. Forced : No

  153. Original source medium : Blu-ray

  154. Text #5

  155. ID : 8

  156. ID in the original source medium : 4772 (0x12A4)

  157. Format : PGS

  158. Muxing mode : zlib

  159. Codec ID : S_HDMV/PGS

  160. Codec ID/Info : Picture based subtitle format used on BDs/HD-DVDs

  161. Duration : 2 h 10 min

  162. Bit rate : 128 kb/s

  163. Count of elements : 6524

  164. Stream size : 119 MiB (0%)

  165. Title : cht&eng

  166. Language : Chinese

  167. Default : Yes

  168. Forced : No

  169. Original source medium : Blu-ray

  170. Menu

  171. 00:00:00.000 : en:第 01 章

  172. 00:09:24.105 : en:第 02 章

  173. 00:15:04.320 : en:第 03 章

  174. 00:23:08.678 : en:第 04 章

  175. 00:29:44.032 : en:第 05 章

  176. 00:36:26.809 : en:第 06 章

  177. 00:42:01.268 : en:第 07 章

  178. 00:49:09.655 : en:第 08 章

  179. 00:56:08.323 : en:第 09 章

  180. 01:00:02.223 : en:第 10 章

  181. 01:09:50.519 : en:第 11 章

  182. 01:15:26.730 : en:第 12 章

  183. 01:20:56.935 : en:第 13 章

  184. 01:29:47.423 : en:第 14 章

  185. 01:37:14.411 : en:第 15 章

  186. 01:43:32.247 : en:第 16 章

  187. 01:49:38.572 : en:第 17 章

  188. 01:56:20.682 : en:第 18 章

  189. 02:00:41.359 : en:第 19 章

  190. 02:09:33.974 : en:第 20 章


文件下载


除非特别注明,本文『超级战舰[国语配音/中文字幕/特效字幕].Battleship.2012.BluRay.2160p.DTS-X.7.1HDR.x265.10bit-CTRLHD 30.86GB』来源于互联网机器人自动抓取,非本站原创。 浮游电影网不对本文拥有版权,如有侵犯,请联系邮箱:fuyouu#yandex.com[#换成@]投诉。我们会在15个工作日内删除。 但烦请转载时请标明出处:“本文转载于『浮游电影网』,原文地址:https://www.fuyouu.com/22064.html

评论吧骚年!

发表你的见解   

昵称*

E-mail*(建议输入,以便收到博主回复的提示邮件)

验证码*

您可以使用eMule或eMule Mod(Windows)、aMule(Win、Linux、Mac)等软件下载eD2k链接。。
eMule收藏集(.emulecollection)文件是您选中的所有链接的列表文件。eMule可以直接下载它们。
按住SHIFT键选择可以选中多个选择框。
可用文件名和大小选择器来选择文件。
文件名选择器帮您根据文件名称或后缀来选择文件。不分大小写。
符号使用:
和:空格( )、+
不包含:-
或:|
转义:一对英文引号("");
匹配开头:^
匹配结尾:$
例如:
选中所有名称中包含有“eMule”或“0.49c”字眼,但不包含有“exe”字眼的:emule|0.49c -exe
选中所有名称的开头是“eMule”,结尾是“0.49c”的:^emule 0.49c$
选中所有名称中带有“eMule 0.49c”的(必须是“eMule 0.49c”,中间没有别的字符,不能是“eMule fake 0.49c”),需要转义:"emule 0.49c"
大小选择器帮您根据文件大小选择文件。