当前位置: 首页 >> 海外电影 >> 维也纳战役/1683维也纳之战[片源]The.Day.of.the.Siege.September.Eleven.1683.2012.1080p.BluRay.x264.DTS-FGT 5.78GB >> 正文

维也纳战役/1683维也纳之战[片源]The.Day.of.the.Siege.September.Eleven.1683.2012.1080p.BluRay.x264.DTS-FGT 5.78GB

2022年05月11日 21:38:30     电影发布:来源于网络     电影分类:海外电影     评论(0)    

p1598753433.jpg

◎译 名 维也纳战役/1683维也纳之战/September Eleven 1683/The Day of the Siege: September Eleven 1683

◎片 名 Bitwa pod Wiedniem

◎年 代 2012

◎产 地 意大利,波兰

◎类 别 历史

◎语 言 英语

◎上映日期 2012-09-28

◎IMDb评分 4.2/10 from 1816 users

◎IMDb链接 https://www.imdb.com/title/tt1899285/

◎豆瓣评分 5.9/10 from 280 users

◎豆瓣链接 https://movie.douban.com/subject/6537485/

◎片 长 114分钟

◎导 演 伦佐·马蒂内利 Renzo Martinelli

◎编 剧 伦佐·马蒂内利 Renzo Martinelli

◎主 演 F·默里·亚伯拉罕 F. Murray Abraham

恩里克·洛维索 Enrico Lo Verso

杰兹·斯科利莫夫斯基 Jerzy Skolimowski

艾丽卡·巴赫蕾达-库鲁斯 Alicja Bachleda

彼得·亚当奇克 Piotr Adamczyk

克莱尔·布鲁姆 Claire Bloom

Matteo Branciamore

Marius Chivu

安东尼奥·库普 Antonio Cupo

乔治·卢帕诺 Giorgio Lupano

菲德莉卡·马丁内莉 Federica Martinelli

Gianni Musy

达尼尔·奥勒布里斯基 Daniel Olbrychski

伊莎贝拉·奥尔西尼 Isabella Orsini

波利斯·席克 Borys Szyc

约尔戈·沃亚吉斯 Yorgo Voyagis

山内春彦 Hal Yamanouchi

沃伊切赫·麦克瓦尔达斯基 Wojciech Mecwaldowski

白兰度·帕奇托 Brando Pacitto

安吉丽卡·卡琪亚帕格莉亚 Angelica Cacciapaglia

马达林·德拉甘 Madalin Dragan

斯蒂芬·扬库 Stefan Iancu

Edward Linde-Lubaszenko

Daniel Visan

克里斯蒂娜·塞拉菲尼 Cristina Serafini

◎标 签 战争 | 历史 | 维也纳保卫战 | 波兰 | 波兰电影 | 史诗 | 奥斯曼 | 维也纳

◎简 介 

1453年,东罗马帝国陷落后,地处中欧的神圣罗马帝国,不得不直接面对土耳其人的侵扰。土耳其人热衷扩张,虽然他们信奉伊斯兰教,但他们认为他们才是真正的“罗马皇帝”,神圣罗马帝国的皇位,已由哈布斯堡王朝掌权两百年,他们是基督教世界的最后保卫者,双方再维也纳一决高下:一方信誓旦旦,另一方誓死捍卫。


Video

ID : 1

Format : AVC

Format/Info : Advanced Video Codec

Format profile : [email protected]

Format settings, CABAC : Yes

Format settings, ReFrames : 5 frames

Codec ID : V_MPEG4/ISO/AVC

Duration : 1h 54mn

Bit rate : 5 566 Kbps

Width : 1 920 pixels

Height : 816 pixels

Display aspect ratio : 2.35:1

Frame rate mode : Constant

Frame rate : 25.000 fps

Color space : YUV

Chroma subsampling : 4:2:0

Bit depth : 8 bits

Scan type : Progressive

Bits/(Pixel*Frame) : 0.142

Stream size : 4.46 GiB (77%)

Writing library : x264 core 146 r2538 121396c

Encoding settings : cabac=1 / ref=5 / deblock=1:-1:-1 / analyse=0x3:0x133 / me=umh / subme=7 / psy=1 / psy_rd=1.00:0.15 / mixed_ref=1 / me_range=16 / chroma_me=1 / trellis=1 / 8x8dct=1 / cqm=0 / deadzone=21,11 / fast_pskip=0 / chroma_qp_offset=-3 / threads=8 / lookahead_threads=1 / sliced_threads=0 / nr=0 / decimate=1 / interlaced=0 / bluray_compat=0 / constrained_intra=0 / bframes=3 / b_pyramid=2 / b_adapt=1 / b_bias=0 / direct=1 / weightb=1 / open_gop=0 / weightp=2 / keyint=250 / keyint_min=25 / scenecut=40 / intra_refresh=0 / rc_lookahead=40 / rc=crf / mbtree=1 / crf=20.0 / qcomp=0.60 / qpmin=0 / qpmax=69 / qpstep=4 / ip_ratio=1.40 / aq=1:1.00

Default : Yes

Forced : No

Audio

ID : 2

Format : DTS

Format/Info : Digital Theater Systems

Mode : 16

Format settings, Endianness : Big

Codec ID : A_DTS

Duration : 1h 54mn

Bit rate mode : Constant

Bit rate : 1 509 Kbps

Channel(s) : 6 channels

Channel positions : Front: L C R, Side: L R, LFE

Sampling rate : 48.0 KHz

Frame rate : 93.750 fps (512 spf)

Bit depth : 16 bits

Compression mode : Lossy

Stream size : 1.21 GiB (21%)

Language : English

Default : No

Forced : No

Menu

00:00:00.000 : en:00:00:00.000

00:10:44.000 : en:00:10:44.000

00:19:48.640 : en:00:19:48.640

00:28:59.200 : en:00:28:59.200

00:39:14.520 : en:00:39:14.520

00:50:30.400 : en:00:50:30.400

00:59:45.240 : en:00:59:45.240

01:10:17.440 : en:01:10:17.440

01:17:34.680 : en:01:17:34.680

01:27:46.040 : en:01:27:46.040

01:37:17.360 : en:01:37:17.360

01:44:31.680 : en:01:44:31.680




文件下载

维也纳战役/1683维也纳之战[片源]The.Day.of.the.Siege.September.Eleven.1683.2012.1080p.BluRay.x264.DTS FGT 5.78GB  海外电影  第3张

除非特别注明,本文『维也纳战役/1683维也纳之战[片源]The.Day.of.the.Siege.September.Eleven.1683.2012.1080p.BluRay.x264.DTS-FGT 5.78GB』来源于互联网机器人自动抓取,非本站原创。 浮游电影网不对本文拥有版权,如有侵犯,请联系邮箱:fuyouu#yandex.com[#换成@]投诉。我们会在15个工作日内删除。 但烦请转载时请标明出处:“本文转载于『浮游电影网』,原文地址:https://www.fuyouu.com/22062.html

评论吧骚年!

发表你的见解   

昵称*

E-mail*(建议输入,以便收到博主回复的提示邮件)

验证码*

您可以使用eMule或eMule Mod(Windows)、aMule(Win、Linux、Mac)等软件下载eD2k链接。。
eMule收藏集(.emulecollection)文件是您选中的所有链接的列表文件。eMule可以直接下载它们。
按住SHIFT键选择可以选中多个选择框。
可用文件名和大小选择器来选择文件。
文件名选择器帮您根据文件名称或后缀来选择文件。不分大小写。
符号使用:
和:空格( )、+
不包含:-
或:|
转义:一对英文引号("");
匹配开头:^
匹配结尾:$
例如:
选中所有名称中包含有“eMule”或“0.49c”字眼,但不包含有“exe”字眼的:emule|0.49c -exe
选中所有名称的开头是“eMule”,结尾是“0.49c”的:^emule 0.49c$
选中所有名称中带有“eMule 0.49c”的(必须是“eMule 0.49c”,中间没有别的字符,不能是“eMule fake 0.49c”),需要转义:"emule 0.49c"
大小选择器帮您根据文件大小选择文件。