当前位置: 首页 >> 欧美电影 >> 时空恋旅人[国英多音轨/中英字幕].About.Time.2013.BluRay.1080p.x265.10bit.2Audio-MiniHD 3.15GB >> 正文

时空恋旅人[国英多音轨/中英字幕].About.Time.2013.BluRay.1080p.x265.10bit.2Audio-MiniHD 3.15GB

2022年05月11日 21:18:52     电影发布:来源于网络     电影分类:欧美电影     评论(0)    

◎译 名 时空恋旅人 / 回到最爱的一天(港) / 真爱每一天(台) / 时空旅恋人 / 时空旅的恋人

◎片 名 About Time

◎年 代 2013

◎产 地 英国

◎类 别 喜剧 / 爱情 / 奇幻

◎语 言 英语

◎上映日期 2013-09-04(英国)

◎IMDb链接 https://www.imdb.com/title/tt2194499/

◎豆瓣评分 8.8/10 (582366人评价)

◎豆瓣链接 https://movie.douban.com/subject/10577869/

◎片 长 123分钟

◎导 演 理查德·柯蒂斯 Richard Curtis (id:1040673)

◎编 剧 理查德·柯蒂斯 Richard Curtis (id:1040673)

◎演 员 多姆纳尔·格里森 Domhnall Gleeson (id:1313116)

瑞秋·麦克亚当斯 Rachel McAdams (id:1053587)

比尔·奈伊 Bill Nighy (id:1041002)

莉迪亚·威尔逊 Lydia Wilson (id:1327829)

琳赛·邓肯 Lindsay Duncan (id:1040635)

理查德·科德里 Richard Cordery (id:1351064)

约书亚·麦圭尔 Joshua McGuire (id:1327005)

汤姆·霍兰德 Tom Hollander (id:1049625)

玛格特·罗比 Margot Robbie (id:1272303)

维尔·梅里克 Will Merrick (id:1333550)

凡妮莎·柯比 Vanessa Kirby (id:1317680)

汤姆·休斯 Tom Hughes (id:1274552)

哈利·海顿-佩顿 Harry Hadden-Paton (id:1327086)

米切尔·马伦 Mitchell Mullen (id:1331549)

丽莎·艾科恩 Lisa Eichhorn (id:1007104)

珍妮·莱恩斯福德 Jenny Rainsford (id:1362142)

菲利普-沃斯 Philip Voss (id:1329996)

凯瑟琳·斯戴曼 Catherine Steadman (id:1319362)

汤姆·斯托顿 Tom Stourton (id:1353024)

安部春香 Haruka Abe (id:1253645)

李·阿斯奎斯-柯 Lee Asquith-Coe (id:1330289)

理查德·班克斯 Richard Banks (id:1345266)

保罗·布莱克维尔 Paul Blackwell (id:1333556)

贝恩·科拉科 Bern Colla?o (id:1394212)

格拉姆·柯里 Graham Curry (id:1232609)

罗薇娜·戴蒙德 Rowena Diamond (id:1333553)

约翰·达根 John Duggan (id:1333554)

迪诺·法赞尼 Dino Fazzani (id:1366874)

内芙·加切夫 Neve Gachev (id:1333548)

理查德·E·格兰特 Richard E. Grant (id:1048188)

理查德·格雷弗斯 Richard Griffiths (id:1025262)

李·尼古拉斯·哈里斯 Lee Nicholas Harris (id:1333551)

理查德·赫德曼 Richard Herdman (id:1333558)

李仙湖 Chelsea Li (id:1347589)

马修·C·马蒂诺 Matthew C. Martino (id:1333552)

马汀·麦格 Martyn Mayger (id:1368245)

艾莉克丝·摩尔 Alex Moore (id:1230026)

艾薇·维 Evie Wray (id:1333557)

艾莎·哈特 Aiysha Hart (id:1337307)

黛博拉·罗桑 Deborah Rosan (id:1333555)

弗朗西斯卡·祖琪妮 Francesca Zucchini (id:1392171)

朱莉·沃洛诺 Julie Vollono (id:1408146)

阿曼达·伦贝里 Amanda Renberg (id:1184684)

尼可拉·芬恩 Nichola Fynn (id:1333549)

理查德·柯蒂斯 Richard Curtis (id:1040673)

艾丽·戈尔丁 Ellie Goulding (id:1338137)

尼克·莱尔德-克劳斯 Nick Laird-Clowes (id:1105049)

约翰·古莱斯利安 John Guleserian (id:1003765)

戴维·辛德 David Hindle (id:1466527)

◎简 介

Tim(多姆纳尔·格利森 Domhnall Gleeson 饰)21岁了,他的老爸(比尔·奈伊 Bill Nighy 饰)告诉他,他们家族的男人都有时光旅行的超能力,可以回到过去。于是Tim将信就疑地试了一下,回到了夏天,在那里他试图改变和暗恋对象的关系,却发现怎么穿越时空都不能让不爱你的人爱上你。之后Tim来到了伦敦,成为了一个律师。他爱上了一个漂亮的姑娘Mary(瑞秋·麦克亚当斯 Rachel McAdams 饰),他通过几次时空旅行,努力地想成为Mary的男朋友。再后来,他又试图通过时光旅行,去挽回一场失败的话剧,去改善妹妹的生活,去更好地和亲人、朋友相处,度过生命中的每一天。

◎获奖情况 (共5项)

第34届伦敦影评人协会奖 (2014)

年度英国/爱尔兰女演员(提名)

└──琳赛·邓肯 (id:1040635)

第1届豆瓣电影年度榜单 (2014)

最受关注的非院线电影(提名)

评分最高的欧洲电影

1月最受关注电影(提名)

第4届豆瓣电影鑫像奖 (2014)

鑫豆单元 最佳爱情片(提名)

  1. ##### MediaInfo ######

  2. General

  3. Unique ID : 189207590000490595347561833541449298957 (0x8E580E6B8F3FECADB9A02DA51168340D)

  4. Complete name : About.Time.2013.BluRay.1080p.x265.10bit.2Audio-MiniHD.mkv

  5. Format : Matroska

  6. Format version : Version 4

  7. File size : 3.15 GiB

  8. Duration : 2 h 3 min

  9. Overall bit rate : 3 653 kb/s

  10. Encoded date : UTC 2017-03-14 06:50:23

  11. Writing application : mkvmerge v9.7.1 ('Pandemonium') 64bit

  12. Writing library : libebml v1.3.4 + libmatroska v1.4.5

  13. Video

  14. ID : 1

  15. Format : HEVC

  16. Format/Info : High Efficiency Video Coding

  17. Format profile : Main [email protected]@Main

  18. Codec ID : V_MPEGH/ISO/HEVC

  19. Duration : 2 h 3 min

  20. Bit rate : 2 300 kb/s

  21. Width : 1 920 pixels

  22. Height : 800 pixels

  23. Display aspect ratio : 2.40:1

  24. Frame rate mode : Constant

  25. Frame rate : 23.976 (24000/1001/53354) FPS

  26. Color space : YUV

  27. Chroma subsampling : 4:2:0

  28. Bit depth : 10 bits

  29. Bits/(Pixel*Frame) : 0.062

  30. Stream size : 1.98 GiB (63%)

  31. Writing library : x265 2.3+7-c15f8bce9f4b:[Windows][GCC 6.3.0][64 bit] 10bit

  32. Encoding settings : cpuid=533541173503 / frame-threads=6 / numa-pools=36 / wpp / no-pmode / no-pme / no-psnr / no-ssim / log-level=2 / input-csp=1 / input-res=1920x800 / interlace=0 / total-frames=177474 / level-idc=0 / high-tier=1 / uhd-bd=0 / ref=5 / no-allow-non-conformance / no-repeat-headers / annexb / no-aud / no-hrd / info / hash=0 / no-temporal-layers / no-open-gop / min-keyint=1 / keyint=360 / bframes=8 / b-adapt=2 / b-pyramid / bframe-bias=0 / rc-lookahead=60 / lookahead-slices=4 / NTMzNTQ=uuDQuD2mJt9fsCf / scenecut=40 / no-intra-refresh / ctu=32 / min-cu-size=8 / rect / no-amp / max-tu-size=16 / tu-inter-depth=2 / tu-intra-depth=2 / limit-tu=0 / rdoq-level=2 / dynamic-rd=0.00 / signhide / no-tskip / nr-intra=0 / nr-inter=0 / no-constrained-intra / no-strong-intra-smoothing / max-merge=3 / limit-refs=2 / limit-modes / me=3 / subme=5 / merange=25 / temporal-mvp / weightp / weightb / no-analyze-src-pics / deblock=-1:-1 / no-sao / no-sao-non-deblock / rd=4 / no-early-skip / rskip / no-fast-intra / no-tskip-fast / no-cu-lossless / b-intra / rdpenalty=1 / psy-rd=0.00 / psy-rdoq=5.00 / no-rd-refine / analysis-mode=0 / no-lossless / cbqpoffs=-2 / crqpoffs=-2 / rc=crf / crf=19.0 / qcomp=0.65 / qpstep=4 / stats-write=0 / stats-read=0 / ipratio=1.30 / pbratio=1.20 / aq-mode=2 / aq-strength=0.80 / cutree / zone-count=0 / no-strict-cbr / qg-size=16 / no-rc-grain / qpmax=69 / qpmin=0 / sar=0 / overscan=0 / videoformat=5 / range=0 / colorprim=1 / transfer=2 / colormatrix=2 / chromaloc=0 / display-window=0 / max-cll=0,0 / min-luma=0 / max-luma=1023 / log2-max-poc-lsb=8 / vui-timing-info / vui-hrd-info / slices=1 / opt-qp-pps / opt-ref-list-length-pps / no-multi-pass-opt-rps / scenecut-bias=0.05 / no-opt-cu-delta-qp / no-aq-motion / no-hdr / no-hdr-opt / Capture-colorprim=3

  33. Default : Yes

  34. Forced : No

  35. Color range : Limited

  36. Color primaries : BT.709

  37. Audio #1

  38. ID : 2

  39. Format : AC-3

  40. Format/Info : Audio Coding 3

  41. Commercial name : Dolby Digital

  42. Codec ID : A_AC3

  43. Duration : 2 h 3 min

  44. Bit rate mode : Constant

  45. Bit rate : 640 kb/s

  46. Channel(s) : 6 channels

  47. Channel layout : L R C LFE Ls Rs

  48. Sampling rate : 48.0 kHz

  49. Frame rate : 31.250 FPS (1536 SPF)

  50. Compression mode : Lossy

  51. Stream size : 565 MiB (18%)

  52. Language : English

  53. Service kind : Complete Main

  54. Default : Yes

  55. Forced : No

  56. Audio #2

  57. ID : 3

  58. Format : AC-3

  59. Format/Info : Audio Coding 3

  60. Commercial name : Dolby Digital

  61. Codec ID : A_AC3

  62. Duration : 2 h 3 min

  63. Bit rate mode : Constant

  64. Bit rate : 640 kb/s

  65. Channel(s) : 6 channels

  66. Channel layout : L R C LFE Ls Rs

  67. Sampling rate : 48.0 kHz

  68. Frame rate : 31.250 FPS (1536 SPF)

  69. Compression mode : Lossy

  70. Stream size : 565 MiB (18%)

  71. Language : Chinese

  72. Service kind : Complete Main

  73. Default : No

  74. Forced : No

  75. Text #1

  76. ID : 4

  77. Format : PGS

  78. Muxing mode : zlib

  79. Codec ID : S_HDMV/PGS

  80. Codec ID/Info : Picture based subtitle format used on BDs/HD-DVDs

  81. Language : English

  82. Default : Yes

  83. Forced : No

  84. Text #2

  85. ID : 5

  86. Format : PGS

  87. Muxing mode : zlib

  88. Codec ID : S_HDMV/PGS

  89. Codec ID/Info : Picture based subtitle format used on BDs/HD-DVDs

  90. Language : Chinese

  91. Default : No

  92. Forced : No

  93. Text #3

  94. ID : 6

  95. Format : PGS

  96. Muxing mode : zlib

  97. Codec ID : S_HDMV/PGS

  98. Codec ID/Info : Picture based subtitle format used on BDs/HD-DVDs

  99. Language : Chinese

  100. Default : No

  101. Forced : No

  102. Text #4

  103. ID : 7

  104. Format : PGS

  105. Muxing mode : zlib

  106. Codec ID : S_HDMV/PGS

  107. Codec ID/Info : Picture based subtitle format used on BDs/HD-DVDs

  108. Language : Chinese

  109. Default : No

  110. Forced : No

  111. Text #5

  112. ID : 8

  113. Format : PGS

  114. Muxing mode : zlib

  115. Codec ID : S_HDMV/PGS

  116. Codec ID/Info : Picture based subtitle format used on BDs/HD-DVDs

  117. Language : Chinese

  118. Default : No

  119. Forced : No

  120. Menu

  121. 00:00:00.000 : en:Chapter 01

  122. 00:03:58.071 : en:Chapter 02

  123. 00:10:11.902 : en:Chapter 03

  124. 00:17:26.295 : en:Chapter 04

  125. 00:20:38.111 : en:Chapter 05

  126. 00:26:04.396 : en:Chapter 06

  127. 00:32:44.003 : en:Chapter 07

  128. 00:40:26.590 : en:Chapter 08

  129. 00:45:17.965 : en:Chapter 09

  130. 00:49:43.438 : en:Chapter 10

  131. 00:54:50.870 : en:Chapter 11

  132. 01:03:44.529 : en:Chapter 12

  133. 01:09:29.373 : en:Chapter 13

  134. 01:16:28.000 : en:Chapter 14

  135. 01:21:35.724 : en:Chapter 15

  136. 01:27:24.447 : en:Chapter 16

  137. 01:34:52.812 : en:Chapter 17

  138. 01:43:48.847 : en:Chapter 18

  139. 01:49:32.315 : en:Chapter 19

  140. 01:57:03.141 : en:Chapter 20


复制代码



文件下载


除非特别注明,本文『时空恋旅人[国英多音轨/中英字幕].About.Time.2013.BluRay.1080p.x265.10bit.2Audio-MiniHD 3.15GB』来源于互联网机器人自动抓取,非本站原创。 浮游电影网不对本文拥有版权,如有侵犯,请联系邮箱:fuyouu#yandex.com[#换成@]投诉。我们会在15个工作日内删除。 但烦请转载时请标明出处:“本文转载于『浮游电影网』,原文地址:https://www.fuyouu.com/22059.html

评论吧骚年!

发表你的见解   

昵称*

E-mail*(建议输入,以便收到博主回复的提示邮件)

验证码*

您可以使用eMule或eMule Mod(Windows)、aMule(Win、Linux、Mac)等软件下载eD2k链接。。
eMule收藏集(.emulecollection)文件是您选中的所有链接的列表文件。eMule可以直接下载它们。
按住SHIFT键选择可以选中多个选择框。
可用文件名和大小选择器来选择文件。
文件名选择器帮您根据文件名称或后缀来选择文件。不分大小写。
符号使用:
和:空格( )、+
不包含:-
或:|
转义:一对英文引号("");
匹配开头:^
匹配结尾:$
例如:
选中所有名称中包含有“eMule”或“0.49c”字眼,但不包含有“exe”字眼的:emule|0.49c -exe
选中所有名称的开头是“eMule”,结尾是“0.49c”的:^emule 0.49c$
选中所有名称中带有“eMule 0.49c”的(必须是“eMule 0.49c”,中间没有别的字符,不能是“eMule fake 0.49c”),需要转义:"emule 0.49c"
大小选择器帮您根据文件大小选择文件。