当前位置: 首页 >> 欧美电影 >> 时光尽头的恋人[中文字幕].The.Age.of.Adaline.2015.BluRay.1080p.x265.10bit-MiniHD 4.28GB >> 正文

时光尽头的恋人[中文字幕].The.Age.of.Adaline.2015.BluRay.1080p.x265.10bit-MiniHD 4.28GB

2022年05月11日 21:18:03     电影发布:来源于网络     电影分类:欧美电影     评论(0)    

◎译 名 时光尽头的恋人 / 阿戴琳的年龄 / 时光逆爱90年(港) / 时空永恒的爱恋(台) / 美人不迟暮

◎片 名 The Age of Adaline

◎年 代 2015

◎产 地 美国

◎类 别 剧情 / 爱情 / 奇幻

◎语 言 英语

◎上映日期 2015-04-24(美国)

◎IMDb链接 https://www.imdb.com/title/tt1655441/

◎豆瓣评分 6.7/10 (61097人评价)

◎豆瓣链接 https://movie.douban.com/subject/6039412/

◎片 长 112分钟

◎导 演 李·托兰·克里格 Lee Toland Krieger (id:1308752)

◎编 剧 J·迈尔斯·古德洛 J. Mills Goodloe (id:1042254)

◎演 员 布蕾克·莱弗利 Blake Lively (id:1041026)

米希尔·赫伊斯曼 Michiel Huisman (id:1009362)

哈里森·福特 Harrison Ford (id:1009238)

艾伦·伯斯汀 Ellen Burstyn (id:1036407)

凯西·贝克 Kathy Baker (id:1055726)

阿曼达·克鲁 Amanda Crew (id:1016614)

琳达·博伊德 Lynda Boyd (id:1055965)

休·罗斯 Hugh Ross (id:1349347)

理查德·哈蒙 Richard Harmon (id:1253549)

富尔·切切里 Fulvio Cecere (id:1079001)

安贾莉·杰 Anjali Jay (id:1349348)

神奈川宏幸 Hiro Kanagawa (id:1028007)

皮特·J.加里 Peter J. Gray (id:1349349)

伊扎贝尔·皮尔斯 Izabel Pearce (id:1349351)

凯特·理查森 Cate Richardson (id:1349350)

Anthony Ingruber Anthony Ingruber (id:1268896)

琳赛·伊丽莎白 Lindsey Elizabeth (id:1341111)

舍治·哈德 Serge Houde (id:1320944)

马克·加尼梅 Mark Ghanimé (id:1235031)

克里斯·威廉·马丁 Chris William Martin (id:1115670)

巴克莱·霍普 Barclay Hope (id:1096485)

罗伯·西蒙森 Rob Simonsen (id:1033218)

◎简 介

1908年,阿戴琳(布蕾克·莱弗利 Blake Lively 饰)出生了,一晃眼27年过去,曾经那个哇哇啼哭的小婴儿已经长大成人,组建了属于自己的家庭,成为了一名母亲。然而,就在这人生中最幸福的时刻,一场意外的发生让阿戴琳徘徊在生死的边缘并最终幸运的死里逃生,然而,很快,阿戴琳就发现,自己的身体发生了某些奇妙的变化,她竟然不再变老,而是永远的停留在了27岁。

拥有永恒的生命这件事听起来很妙,但实际上却充满了痛苦,随着时间的推移,阿戴琳所爱的人们渐渐变老,并最终离开了她,留下阿戴琳一人在这世间,沉浸于无尽的孤独之中,阿戴琳封闭起了自己的内心,不再与外界交往,就这样过了近八十年,此时,一位名叫艾利(米契尔·哈思曼 Michiel Huisman 饰)的男人走进了阿戴琳的生命。

◎获奖情况 (共3项)

第17届美国青少年选择奖 (2015)

最佳剧情片(提名)

最佳剧情片女演员(提名)

└──布蕾克·莱弗利 (id:1041026)

最佳电影吻戏(提名)

  1. ##### MediaInfo ######

  2. General

  3. Unique ID : 221406242792517086859528715818344291290 (0xA6914A91C632A70FA543FFF826D69BDA)

  4. Complete name : The.Age.of.Adaline.2015.BluRay.1080p.x265.10bit-MiniHD.mkv

  5. Format : Matroska

  6. Format version : Version 4

  7. File size : 4.28 GiB

  8. Duration : 1 h 52 min

  9. Overall bit rate : 5 436 kb/s

  10. Encoded date : UTC 2016-11-07 11:05:19

  11. Writing application : mkvmerge v9.2.0 ('Photograph') 32bit

  12. Writing library : libebml v1.3.3 + libmatroska v1.4.4

  13. Video

  14. ID : 1

  15. Format : HEVC

  16. Format/Info : High Efficiency Video Coding

  17. Format profile : Main [email protected]@Main

  18. Codec ID : V_MPEGH/ISO/HEVC

  19. Duration : 1 h 52 min

  20. Bit rate : 4 687 kb/s

  21. Width : 1 920 pixels

  22. Height : 800 pixels

  23. Display aspect ratio : 2.40:1

  24. Frame rate mode : Constant

  25. Frame rate : 23.976 (24000/1001/53354) FPS

  26. Color space : YUV

  27. Chroma subsampling : 4:2:0

  28. Bit depth : 10 bits

  29. Bits/(Pixel*Frame) : 0.127

  30. Stream size : 3.69 GiB (86%)

  31. Writing library : x265 2.1+36-d216cb9b3b47:[Windows][GCC 6.2.0][64 bit] 10bit

  32. Encoding settings : wpp / ctu=32 / min-cu-size=8 / max-tu-size=16 / tu-intra-depth=2 / tu-inter-depth=2 / me=3 / subme=5 / merange=25 / rect / no-amp / max-merge=3 / temporal-mvp / no-early-skip / rskip / rdpenalty=1 / no-tskip / no-tskip-fast / no-strong-intra-smoothing / no-lossless / no-cu-lossless / no-constrained-intra / no-fast-intra / no-open-gop / no-temporal-layers / interlace=0 / keyint=360 / min-keyint=1 / NTMzNTQ=uuDQuD2mJt9fsCf / scenecut=40 / bias-for-scenecut=0.05 / rc-lookahead=60 / lookahead-slices=4 / bframes=8 / bframe-bias=0 / b-adapt=2 / ref=5 / limit-refs=3 / limit-modes / weightp / weightb / aq-mode=3 / qg-size=16 / aq-strength=0.90 / cbqpoffs=-3 / crqpoffs=-3 / rd=4 / psy-rd=1.00 / rdoq-level=2 / psy-rdoq=5.00 / log2-max-poc-lsb=8 / limit-tu=0 / no-rd-refine / signhide / deblock=-1:-1 / no-sao / no-sao-non-deblock / b-pyramid / cutree / no-intra-refresh / rc=crf / crf=20.0 / qcomp=0.70 / qpmin=0 / qpmax=69 / qpstep=4 / ipratio=1.40 / pbratio=1.30

  33. Default : Yes

  34. Forced : No

  35. Color range : Limited

  36. Color primaries : BT.709

  37. Audio

  38. ID : 2

  39. Format : AC-3

  40. Format/Info : Audio Coding 3

  41. Commercial name : Dolby Digital

  42. Codec ID : A_AC3

  43. Duration : 1 h 52 min

  44. Bit rate mode : Constant

  45. Bit rate : 640 kb/s

  46. Channel(s) : 6 channels

  47. Channel layout : L R C LFE Ls Rs

  48. Sampling rate : 48.0 kHz

  49. Frame rate : 31.250 FPS (1536 SPF)

  50. Compression mode : Lossy

  51. Stream size : 516 MiB (12%)

  52. Language : English

  53. Service kind : Complete Main

  54. Default : Yes

  55. Forced : No

  56. Text #1

  57. ID : 3

  58. Format : PGS

  59. Muxing mode : zlib

  60. Codec ID : S_HDMV/PGS

  61. Codec ID/Info : Picture based subtitle format used on BDs/HD-DVDs

  62. Language : English

  63. Default : Yes

  64. Forced : No

  65. Text #2

  66. ID : 4

  67. Format : PGS

  68. Muxing mode : zlib

  69. Codec ID : S_HDMV/PGS

  70. Codec ID/Info : Picture based subtitle format used on BDs/HD-DVDs

  71. Language : Chinese

  72. Default : No

  73. Forced : No

  74. Text #3

  75. ID : 5

  76. Format : PGS

  77. Muxing mode : zlib

  78. Codec ID : S_HDMV/PGS

  79. Codec ID/Info : Picture based subtitle format used on BDs/HD-DVDs

  80. Language : Chinese

  81. Default : No

  82. Forced : No

  83. Text #4

  84. ID : 6

  85. Format : PGS

  86. Muxing mode : zlib

  87. Codec ID : S_HDMV/PGS

  88. Codec ID/Info : Picture based subtitle format used on BDs/HD-DVDs

  89. Language : Chinese

  90. Default : No

  91. Forced : No

  92. Text #5

  93. ID : 7

  94. Format : PGS

  95. Muxing mode : zlib

  96. Codec ID : S_HDMV/PGS

  97. Codec ID/Info : Picture based subtitle format used on BDs/HD-DVDs

  98. Language : Chinese

  99. Default : No

  100. Forced : No

  101. Menu

  102. 00:00:00.000 : en:Chapter 01

  103. 00:06:45.154 : en:Chapter 02

  104. 00:16:52.261 : en:Chapter 03

  105. 00:22:42.194 : en:Chapter 04

  106. 00:28:09.979 : en:Chapter 05

  107. 00:35:37.385 : en:Chapter 06

  108. 00:43:36.947 : en:Chapter 07

  109. 00:50:40.746 : en:Chapter 08

  110. 00:56:08.907 : en:Chapter 09

  111. 01:02:14.689 : en:Chapter 10

  112. 01:08:48.749 : en:Chapter 11

  113. 01:17:20.761 : en:Chapter 12

  114. 01:24:26.394 : en:Chapter 13

  115. 01:31:36.365 : en:Chapter 14

  116. 01:37:45.776 : en:Chapter 15

  117. 01:45:41.877 : en:Chapter 16


复制代码



文件下载


除非特别注明,本文『时光尽头的恋人[中文字幕].The.Age.of.Adaline.2015.BluRay.1080p.x265.10bit-MiniHD 4.28GB』来源于互联网机器人自动抓取,非本站原创。 浮游电影网不对本文拥有版权,如有侵犯,请联系邮箱:fuyouu#yandex.com[#换成@]投诉。我们会在15个工作日内删除。 但烦请转载时请标明出处:“本文转载于『浮游电影网』,原文地址:https://www.fuyouu.com/22058.html

评论吧骚年!

发表你的见解   

昵称*

E-mail*(建议输入,以便收到博主回复的提示邮件)

验证码*

您可以使用eMule或eMule Mod(Windows)、aMule(Win、Linux、Mac)等软件下载eD2k链接。。
eMule收藏集(.emulecollection)文件是您选中的所有链接的列表文件。eMule可以直接下载它们。
按住SHIFT键选择可以选中多个选择框。
可用文件名和大小选择器来选择文件。
文件名选择器帮您根据文件名称或后缀来选择文件。不分大小写。
符号使用:
和:空格( )、+
不包含:-
或:|
转义:一对英文引号("");
匹配开头:^
匹配结尾:$
例如:
选中所有名称中包含有“eMule”或“0.49c”字眼,但不包含有“exe”字眼的:emule|0.49c -exe
选中所有名称的开头是“eMule”,结尾是“0.49c”的:^emule 0.49c$
选中所有名称中带有“eMule 0.49c”的(必须是“eMule 0.49c”,中间没有别的字符,不能是“eMule fake 0.49c”),需要转义:"emule 0.49c"
大小选择器帮您根据文件大小选择文件。