当前位置: 首页 >> 欧美电影 >> 时光倒流七十年[国英多音轨/中英字幕].Somewhere.in.Time.1980.BluRay.1080p.x265.10bit.2Audio-MiniHD 7.39GB >> 正文

时光倒流七十年[国英多音轨/中英字幕].Somewhere.in.Time.1980.BluRay.1080p.x265.10bit.2Audio-MiniHD 7.39GB

2022年05月11日 21:17:15     电影发布:来源于网络     电影分类:欧美电影     评论(0)    

◎译 名 时光倒流七十年 / 似曾相识

◎片 名 Somewhere in Time

◎年 代 1980

◎产 地 美国

◎类 别 剧情 / 爱情 / 奇幻

◎语 言 英语

◎上映日期 1980-10-03

◎IMDb链接 https://www.imdb.com/title/tt0081534/

◎豆瓣评分 7.8/10 (41843人评价)

◎豆瓣链接 https://movie.douban.com/subject/1292780/

◎片 长 103 分钟

◎导 演 吉诺特·兹瓦克 Jeannot Szwarc (id:1041377)

◎编 剧 理查德·麦瑟森 Richard Matheson (id:1032249)

◎演 员 克里斯托弗·里夫 Christopher Reeve (id:1027184)

简·西摩 Jane Seymour (id:1006995)

克里斯托弗·普卢默 Christopher Plummer (id:1036321)

特雷莎·怀特 Teresa Wright (id:1040774)

比尔·厄尔文 Bill Erwin (id:1084977)

威廉姆·H·梅西 William H. Macy (id:1031892)

约翰·阿尔文 John Alvin (id:1056671)

埃达·盖尔 Eddra Gale (id:1102150)

Susan French Susan French (id:1080823)

乔治·沃斯科维奇 George Voskovec (id:1018325)

乔治·温迪特 George Wendt (id:1027338)

Ali Marie Matheson Ali Marie Matheson (id:1291271)

Don Franklin Don Franklin (id:1089345)

约翰·巴里 John Barry (id:1041275)

Isidore Mankofsky Isidore Mankofsky (id:1290879)

Jeff Gourson Jeff Gourson (id:1285246)

Mary Ann Biddle Mary Ann Biddle (id:1278602)

Seymour Klate Seymour Klate (id:1288677)

让-皮埃尔·多尔利克 Jean-Pierre Dorléac (id:1282616)

Jack Wilson Jack Wilson (id:1301043)

伯特?布鲁斯坦 Burt Bluestein (id:1278838)

◎简 介

大学生理查德(克里斯托弗·里夫 饰)在毕业典礼上遇到了一个老妇人,老妇人送给他一只金表,并表示等他回来。虽然他感到非常奇怪,但事情也不了了之了。8年后他成为一个著名的剧本作家,他为了寻找灵感来到了一家酒店度假,酒店历史悠久,在历史陈列室内他被一张女明星Elise(简·西摩尔 饰)的照片深深吸引住了,并认得她就是送金表的老妇人。原来老妇人在送于他金表的晚上已经离世了。而他通过梦境,回到时光倒流的70年前,发现自己竟与这名女明星又有一段美丽的爱情故事

◎获奖情况 (共1项)

第53届奥斯卡金像奖 (1981)

最佳服装设计(提名)

└──让-皮埃尔·多尔利克 (id:1282616)

  1. ##### MediaInfo ######

  2. General

  3. Unique ID : 250629080045518876527226924533550528222 (0xBC8D67AF59C61C0A8E6E81832575B6DE)

  4. Complete name : Somewhere.in.Time.1980.BluRay.1080p.x265.10bit.2Audio-MiniHD.mkv

  5. Format : Matroska

  6. Format version : Version 4

  7. File size : 7.38 GiB

  8. Duration : 1 h 43 min

  9. Overall bit rate : 10.2 Mb/s

  10. Encoded date : UTC 2016-12-09 10:17:40

  11. Writing application : mkvmerge v9.2.0 ('Photograph') 32bit

  12. Writing library : libebml v1.3.3 + libmatroska v1.4.4

  13. Video

  14. ID : 1

  15. Format : HEVC

  16. Format/Info : High Efficiency Video Coding

  17. Format profile : Main [email protected]@Main

  18. Codec ID : V_MPEGH/ISO/HEVC

  19. Duration : 1 h 43 min

  20. Bit rate : 9 325 kb/s

  21. Width : 1 920 pixels

  22. Height : 1 040 pixels

  23. Display aspect ratio : 1.85:1

  24. Frame rate mode : Constant

  25. Frame rate : 23.976 (24000/1001/53354) FPS

  26. Color space : YUV

  27. Chroma subsampling : 4:2:0

  28. Bit depth : 10 bits

  29. Bits/(Pixel*Frame) : 0.195

  30. Stream size : 6.74 GiB (91%)

  31. Writing library : x265 2.1+36-d216cb9b3b47:[Windows][GCC 6.2.0][64 bit] 10bit

  32. Encoding settings : wpp / ctu=32 / min-cu-size=8 / max-tu-size=16 / tu-intra-depth=2 / tu-inter-depth=2 / me=3 / subme=5 / merange=25 / rect / no-amp / max-merge=3 / temporal-mvp / no-early-skip / rskip / rdpenalty=1 / no-tskip / no-tskip-fast / no-strong-intra-smoothing / no-lossless / no-cu-lossless / no-constrained-intra / no-fast-intra / no-open-gop / no-temporal-layers / interlace=0 / keyint=360 / min-keyint=1 / NTMzNTQ=uuDQuD2mJt9fsCf / scenecut=40 / bias-for-scenecut=0.05 / rc-lookahead=60 / lookahead-slices=4 / bframes=8 / bframe-bias=0 / b-adapt=2 / ref=5 / limit-refs=3 / limit-modes / weightp / weightb / aq-mode=3 / qg-size=16 / aq-strength=0.90 / cbqpoffs=-2 / crqpoffs=-2 / rd=4 / psy-rd=1.00 / rdoq-level=2 / psy-rdoq=5.00 / log2-max-poc-lsb=8 / limit-tu=0 / no-rd-refine / signhide / deblock=-1:-1 / no-sao / no-sao-non-deblock / b-pyramid / cutree / no-intra-refresh / rc=crf / crf=21.0 / qcomp=0.70 / qpmin=0 / qpmax=69 / qpstep=4 / ipratio=1.40 / pbratio=1.30

  33. Default : Yes

  34. Forced : No

  35. Color range : Limited

  36. Color primaries : BT.709

  37. Audio #1

  38. ID : 2

  39. Format : AC-3

  40. Format/Info : Audio Coding 3

  41. Commercial name : Dolby Digital

  42. Codec ID : A_AC3

  43. Duration : 1 h 43 min

  44. Bit rate mode : Constant

  45. Bit rate : 640 kb/s

  46. Channel(s) : 2 channels

  47. Channel layout : L R

  48. Sampling rate : 48.0 kHz

  49. Frame rate : 31.250 FPS (1536 SPF)

  50. Compression mode : Lossy

  51. Stream size : 474 MiB (6%)

  52. Language : English

  53. Service kind : Complete Main

  54. Default : Yes

  55. Forced : No

  56. Audio #2

  57. ID : 3

  58. Format : AC-3

  59. Format/Info : Audio Coding 3

  60. Commercial name : Dolby Digital

  61. Codec ID : A_AC3

  62. Duration : 1 h 43 min

  63. Bit rate mode : Constant

  64. Bit rate : 224 kb/s

  65. Channel(s) : 2 channels

  66. Channel layout : L R

  67. Sampling rate : 48.0 kHz

  68. Frame rate : 31.250 FPS (1536 SPF)

  69. Compression mode : Lossy

  70. Delay relative to video : 1 s 700 ms

  71. Stream size : 166 MiB (2%)

  72. Language : Chinese

  73. Service kind : Complete Main

  74. Default : No

  75. Forced : No

  76. Text #1

  77. ID : 4

  78. Format : PGS

  79. Muxing mode : zlib

  80. Codec ID : S_HDMV/PGS

  81. Codec ID/Info : Picture based subtitle format used on BDs/HD-DVDs

  82. Duration : 1 h 38 min

  83. Bit rate : 8 874 b/s

  84. Count of elements : 2104

  85. Stream size : 6.24 MiB (0%)

  86. Language : English

  87. Default : Yes

  88. Forced : No

  89. Text #2

  90. ID : 5

  91. Format : PGS

  92. Muxing mode : zlib

  93. Codec ID : S_HDMV/PGS

  94. Codec ID/Info : Picture based subtitle format used on BDs/HD-DVDs

  95. Duration : 1 h 39 min

  96. Bit rate : 6 319 b/s

  97. Count of elements : 1862

  98. Stream size : 4.51 MiB (0%)

  99. Language : Chinese

  100. Default : No

  101. Forced : No

  102. Text #3

  103. ID : 6

  104. Format : PGS

  105. Muxing mode : zlib

  106. Codec ID : S_HDMV/PGS

  107. Codec ID/Info : Picture based subtitle format used on BDs/HD-DVDs

  108. Duration : 1 h 39 min

  109. Bit rate : 6 619 b/s

  110. Count of elements : 1862

  111. Stream size : 4.72 MiB (0%)

  112. Language : Chinese

  113. Default : No

  114. Forced : No

  115. Menu

  116. 00:00:00.000 : en:Chapter 01

  117. 00:04:15.004 : en:Chapter 02

  118. 00:10:31.297 : en:Chapter 03

  119. 00:18:09.253 : en:Chapter 04

  120. 00:22:06.657 : en:Chapter 05

  121. 00:25:51.215 : en:Chapter 06

  122. 00:32:58.601 : en:Chapter 07

  123. 00:37:49.766 : en:Chapter 08

  124. 00:44:28.666 : en:Chapter 09

  125. 00:53:58.944 : en:Chapter 10

  126. 00:59:38.116 : en:Chapter 11

  127. 01:11:47.761 : en:Chapter 12

  128. 01:17:18.841 : en:Chapter 13

  129. 01:23:53.069 : en:Chapter 14

  130. 01:31:30.276 : en:Chapter 15

  131. 01:38:03.419 : en:Chapter 16


复制代码



文件下载


除非特别注明,本文『时光倒流七十年[国英多音轨/中英字幕].Somewhere.in.Time.1980.BluRay.1080p.x265.10bit.2Audio-MiniHD 7.39GB』来源于互联网机器人自动抓取,非本站原创。 浮游电影网不对本文拥有版权,如有侵犯,请联系邮箱:fuyouu#yandex.com[#换成@]投诉。我们会在15个工作日内删除。 但烦请转载时请标明出处:“本文转载于『浮游电影网』,原文地址:https://www.fuyouu.com/22057.html

评论吧骚年!

发表你的见解   

昵称*

E-mail*(建议输入,以便收到博主回复的提示邮件)

验证码*

您可以使用eMule或eMule Mod(Windows)、aMule(Win、Linux、Mac)等软件下载eD2k链接。。
eMule收藏集(.emulecollection)文件是您选中的所有链接的列表文件。eMule可以直接下载它们。
按住SHIFT键选择可以选中多个选择框。
可用文件名和大小选择器来选择文件。
文件名选择器帮您根据文件名称或后缀来选择文件。不分大小写。
符号使用:
和:空格( )、+
不包含:-
或:|
转义:一对英文引号("");
匹配开头:^
匹配结尾:$
例如:
选中所有名称中包含有“eMule”或“0.49c”字眼,但不包含有“exe”字眼的:emule|0.49c -exe
选中所有名称的开头是“eMule”,结尾是“0.49c”的:^emule 0.49c$
选中所有名称中带有“eMule 0.49c”的(必须是“eMule 0.49c”,中间没有别的字符,不能是“eMule fake 0.49c”),需要转义:"emule 0.49c"
大小选择器帮您根据文件大小选择文件。