当前位置: 首页 >> 欧美电影 >> 搜索者[国英多音轨/中英字幕].The.Searchers.1956.BluRay.1080p.x265.2Audio-MiniHD 4.57GB >> 正文

搜索者[国英多音轨/中英字幕].The.Searchers.1956.BluRay.1080p.x265.2Audio-MiniHD 4.57GB

2022年05月11日 21:16:23     电影发布:来源于网络     电影分类:欧美电影     评论(0)    

◎译 名 搜索者 / 日落狂沙

◎片 名 The Searchers

◎年 代 1956

◎产 地 美国

◎类 别 剧情 / 西部 / 冒险

◎语 言 英语 / 纳瓦霍语 / 西班牙语

◎上映日期 1956-05-26(美国)

◎IMDb链接 https://www.imdb.com/title/tt0049730/

◎豆瓣评分 7.8/10 (7770人评价)

◎豆瓣链接 https://movie.douban.com/subject/1292668/

◎片 长 119 分钟

◎导 演 约翰·福特 John Ford (id:1007035)

◎编 剧 弗兰克·S·纽金特 Frank S. Nugent (id:1019470)

艾伦·勒梅 Alan Le May (id:1014872)

◎演 员 约翰·韦恩 John Wayne (id:1017917)

杰弗里·亨特 Jeffrey Hunter (id:1036562)

维拉·迈尔斯 Vera Miles (id:1049722)

沃德·邦德 Ward Bond (id:1002795)

娜塔莉·伍德 Natalie Wood (id:1009259)

约翰奎尔伦 John Qualen (id:1142854)

奥利芙·凯里 Olive Carey (id:1078486)

亨利·布兰登 Henry Brandon (id:1073719)

肯·柯蒂斯 Ken Curtis (id:1010650)

小哈里·凯瑞 Harry Carey Jr. (id:1048213)

安东尼奥·莫雷诺 Antonio Moreno (id:1129444)

汉克·沃登 Hank Worden (id:1166239)

比拉·阿丘利塔 Beulah Archuletta (id:1059822)

沃尔特·科伊 Walter Coy (id:1068396)

多萝西·乔丹 Dorothy Jordan (id:1110529)

皮帕·斯科特 Pippa Scott (id:1041304)

帕特里克·韦恩 Patrick Wayne (id:1165031)

拉娜·伍德 Lana Wood (id:1032002)

格特鲁德·阿斯特 Gertrude Astor (id:1054339)

丹尼·鲍沙其 Danny Borzage (id:1065867)

露丝·克利福德 Ruth Clifford (id:1074594)

卡门·丹东尼奥 Carmen D'Antonio (id:1078336)

纳乔·加林多 Nacho Galindo (id:1091133)

查克·海沃德 Chuck Hayward (id:1097758)

奥维·卢纳 Away Luna (id:1122878)

克利夫·莱昂斯 Cliff Lyons (id:1115019)

彼得·马马科斯 Peter Mamakos (id:1124807)

梅·马什 Mae Marsh (id:1041421)

弗兰克·麦克格拉斯 Frank McGrath (id:1115101)

杰克·彭尼克 Jack Pennick (id:1136672)

劳埃德·佩里曼 Lloyd Perryman (id:1131856)

查克·罗伯森 Chuck Roberson (id:1141110)

威廉·斯蒂尔 William Steele (id:1155196)

雷云酋长 Chief Thundercloud (id:1159584)

特里·威尔森 Terry Wilson (id:1167668)

普林斯 Prince (id:1433594)

马克思·斯坦纳 Max Steiner (id:1048318)

盖瑞·尼尔森 Gary Nelson (id:1293029)

◎简 介

曾参加过美国内战的退伍老兵埃森·爱德华兹(约翰·韦恩 John Wayne 饰)战争结束后返回家乡德克萨斯州,来到哥哥的农场希望与亲人重聚团圆。埃森一直暗恋着自己的嫂子,只把这份感情放在心底。然而一场科曼奇族的突袭,让埃森的心愿彻底粉碎。在这次印地安人的袭击中,埃森的哥嫂双双被杀,侄女黛比(娜塔利·伍德 Natalie Wood 饰)被掠,生死未卜。

为了给自己心爱的嫂子复仇,也为了找到黛比的下落,埃森在哥哥养子马丁(杰弗里·亨特 Jeffrey Hunter 饰)的陪伴下,开始了艰难的搜寻岁月。埃森不惜耗时五年和花费千元赏金来寻找酋长斯卡的下落,然而埃森对印第安人彻骨的仇恨和几近疯狂的举动,让马丁开始怀疑叔叔搜索黛比的真正原因,马丁甚至担心,埃森会杀死已被印第安人同化的黛比。

  1. ##### MediaInfo ######

  2. General

  3. Unique ID : 207565051782924397430419810858268728716 (0x9C27932A44804FEB928B29C84C0D9D8C)

  4. Complete name : The.Searchers.1956.BluRay.1080p.x265.2Audio-MiniHD.mkv

  5. Format : Matroska

  6. Format version : Version 4

  7. File size : 4.57 GiB

  8. Duration : 1 h 58 min

  9. Overall bit rate : 5 514 kb/s

  10. Movie name : Breaking Bad - S01E01 - Pilot

  11. Encoded date : UTC 2015-03-31 10:45:27

  12. Writing application : mkvmerge v7.2.0 ('On Every Street') 32bit built on Sep 13 2014 15:42:11

  13. Writing library : libebml v1.3.0 + libmatroska v1.4.1

  14. Video

  15. ID : 1

  16. Format : HEVC

  17. Format/Info : High Efficiency Video Coding

  18. Codec ID : V_MPEGH/ISO/HEVC

  19. Duration : 1 h 58 min

  20. Bit rate : 4 994 kb/s

  21. Width : 1 920 pixels

  22. Height : 1 080 pixels

  23. Display aspect ratio : 16:9

  24. Frame rate mode : Constant

  25. Frame rate : 23.976 (24000/1001/53354) FPS

  26. Bits/(Pixel*Frame) : 0.100

  27. Stream size : 4.14 GiB (91%)

  28. Default : Yes

  29. Forced : No

  30. Audio #1

  31. ID : 2

  32. Format : AAC LC

  33. Format/Info : Advanced Audio Codec Low Complexity

  34. Codec ID : A_AAC-2

  35. Duration : 1 h 58 min

  36. Bit rate : 372 kb/s

  37. Channel(s) : 6 channels

  38. Channel layout : C L R Ls Rs LFE

  39. Sampling rate : 48.0 kHz

  40. Frame rate : 46.875 FPS (1024 SPF)

  41. Compression mode : Lossy

  42. Delay relative to video : 20 ms

  43. Stream size : 316 MiB (7%)

  44. Language : English

  45. Default : Yes

  46. Forced : No

  47. Audio #2

  48. ID : 3

  49. Format : AAC LC

  50. Format/Info : Advanced Audio Codec Low Complexity

  51. Codec ID : A_AAC-2

  52. Duration : 1 h 58 min

  53. Bit rate : 106 kb/s

  54. Channel(s) : 2 channels

  55. Channel layout : L R

  56. Sampling rate : 48.0 kHz

  57. Frame rate : 46.875 FPS (1024 SPF)

  58. Compression mode : Lossy

  59. Delay relative to video : 4 ms

  60. Stream size : 89.7 MiB (2%)

  61. Language : Chinese

  62. Default : No

  63. Forced : No

  64. Text #1

  65. ID : 4

  66. Format : PGS

  67. Muxing mode : zlib

  68. Codec ID : S_HDMV/PGS

  69. Codec ID/Info : Picture based subtitle format used on BDs/HD-DVDs

  70. Duration : 1 h 56 min

  71. Bit rate : 14.6 kb/s

  72. Count of elements : 2378

  73. Stream size : 12.1 MiB (0%)

  74. Language : English

  75. Default : Yes

  76. Forced : No

  77. Text #2

  78. ID : 5

  79. Format : PGS

  80. Muxing mode : zlib

  81. Codec ID : S_HDMV/PGS

  82. Codec ID/Info : Picture based subtitle format used on BDs/HD-DVDs

  83. Duration : 1 h 56 min

  84. Bit rate : 12.6 kb/s

  85. Count of elements : 2384

  86. Stream size : 10.5 MiB (0%)

  87. Language : Chinese

  88. Default : No

  89. Forced : No

  90. Text #3

  91. ID : 6

  92. Format : PGS

  93. Muxing mode : zlib

  94. Codec ID : S_HDMV/PGS

  95. Codec ID/Info : Picture based subtitle format used on BDs/HD-DVDs

  96. Duration : 1 h 56 min

  97. Bit rate : 12.4 kb/s

  98. Count of elements : 2384

  99. Stream size : 10.4 MiB (0%)

  100. Language : Chinese

  101. Default : No

  102. Forced : No

  103. Menu

  104. 00:00:00.000 : :Chapter 01

  105. 00:01:29.339 : :Chapter 02

  106. 00:03:08.271 : :Chapter 03

  107. 00:04:24.514 : :Chapter 04

  108. 00:09:02.667 : :Chapter 05

  109. 00:11:53.796 : :Chapter 06

  110. 00:13:08.412 : :Chapter 07

  111. 00:14:22.278 : :Chapter 08

  112. 00:15:19.084 : :Chapter 09

  113. 00:15:53.035 : :Chapter 10

  114. 00:16:33.659 : :Chapter 11

  115. 00:17:25.335 : :Chapter 12

  116. 00:20:25.933 : :Chapter 13

  117. 00:21:05.555 : :Chapter 14

  118. 00:23:23.693 : :Chapter 15

  119. 00:25:10.884 : :Chapter 16

  120. 00:28:30.708 : :Chapter 17

  121. 00:29:49.412 : :Chapter 18

  122. 00:33:54.991 : :Chapter 19

  123. 00:40:19.041 : :Chapter 20

  124. 00:42:26.418 : :Chapter 21

  125. 00:43:56.842 : :Chapter 22

  126. 00:47:58.417 : :Chapter 23

  127. 00:49:14.826 : :Chapter 24

  128. 00:53:59.319 : :Chapter 25

  129. 00:55:30.952 : :Chapter 26

  130. 00:59:18.888 : :Chapter 27

  131. 01:03:31.682 : :Chapter 28

  132. 01:07:20.369 : :Chapter 29

  133. 01:08:55.214 : :Chapter 30

  134. 01:13:03.003 : :Chapter 31

  135. 01:17:31.146 : :Chapter 32

  136. 01:18:06.556 : :Chapter 33

  137. 01:20:56.059 : :Chapter 34

  138. 01:23:41.891 : :Chapter 35

  139. 01:27:37.627 : :Chapter 36

  140. 01:29:36.454 : :Chapter 37

  141. 01:32:05.770 : :Chapter 38

  142. 01:37:57.079 : :Chapter 39

  143. 01:43:06.013 : :Chapter 40

  144. 01:48:00.140 : :Chapter 41

  145. 01:51:16.461 : :Chapter 42

  146. 01:55:22.206 : :Chapter 43

  147. 01:56:57.343 : :Chapter 44


复制代码



文件下载


除非特别注明,本文『搜索者[国英多音轨/中英字幕].The.Searchers.1956.BluRay.1080p.x265.2Audio-MiniHD 4.57GB』来源于互联网机器人自动抓取,非本站原创。 浮游电影网不对本文拥有版权,如有侵犯,请联系邮箱:fuyouu#yandex.com[#换成@]投诉。我们会在15个工作日内删除。 但烦请转载时请标明出处:“本文转载于『浮游电影网』,原文地址:https://www.fuyouu.com/22056.html

评论吧骚年!

发表你的见解   

昵称*

E-mail*(建议输入,以便收到博主回复的提示邮件)

验证码*

您可以使用eMule或eMule Mod(Windows)、aMule(Win、Linux、Mac)等软件下载eD2k链接。。
eMule收藏集(.emulecollection)文件是您选中的所有链接的列表文件。eMule可以直接下载它们。
按住SHIFT键选择可以选中多个选择框。
可用文件名和大小选择器来选择文件。
文件名选择器帮您根据文件名称或后缀来选择文件。不分大小写。
符号使用:
和:空格( )、+
不包含:-
或:|
转义:一对英文引号("");
匹配开头:^
匹配结尾:$
例如:
选中所有名称中包含有“eMule”或“0.49c”字眼,但不包含有“exe”字眼的:emule|0.49c -exe
选中所有名称的开头是“eMule”,结尾是“0.49c”的:^emule 0.49c$
选中所有名称中带有“eMule 0.49c”的(必须是“eMule 0.49c”,中间没有别的字符,不能是“eMule fake 0.49c”),需要转义:"emule 0.49c"
大小选择器帮您根据文件大小选择文件。