当前位置: 首页 >> 欧美电影 >> 一日赴死[中文字幕].A.Day.to.Die.2022.BluRay.1080p.DTS-HDMA5.1.x265.10bit-CTRLHD 6.52GB >> 正文

一日赴死[中文字幕].A.Day.to.Die.2022.BluRay.1080p.DTS-HDMA5.1.x265.10bit-CTRLHD 6.52GB

2022年05月11日 21:12:26     电影发布:来源于网络     电影分类:欧美电影     评论(0)    

◎译 名 一日赴死

◎片 名 A Day to Die

◎年 代 2022

◎产 地 美国

◎类 别 动作

◎语 言 英语

◎上映日期 2022-03-04(美国)

◎IMDb链接 https://www.imdb.com/title/tt14412366/

◎豆瓣评分 3.9/10 (143人评价)

◎豆瓣链接 https://movie.douban.com/subject/35446817/

◎片 长 105分钟

◎导 演 威斯·米勒 Wes Miller (id:1450697)

◎编 剧 拉布·贝里 Rab Berry (id:1457414)

◎演 员 布鲁斯·威利斯 Bruce Willis (id:1010509)

弗兰克·格里罗 Frank Grillo (id:1100321)

凯文·狄龙 Kevin Dillon (id:1022629)

Leon Leon (id:1422120)

里昂·罗宾逊 Leon Robinson (id:1124094)

约翰尼·梅辛纳 Johnny Messner (id:1000104)

穆罕默德·卡里姆 Mohamed Karim (id:1422421)

◎简 介

一个不道德的假释官(狄龙饰)欠下了当地黑帮头目的债务,被迫在12小时内完成一系列危险的毒品抢劫行动,以偿还他所欠的200万美元,同时解救他被绑架的怀孕妻子,并与该市腐败的警察局长(威利斯饰)算账,后者与该黑帮头目合作,多年前曾出卖过假释官。

  1. ##### MediaInfo ######

  2. General

  3. Unique ID : 220675021333121638864767870601859454032 (0xA60476916A8C01CE770CA4945E8C5450)

  4. Complete name : A.Day.to.Die.2022.BluRay.1080p.DTS-HDMA5.1.x265.10bit-CTRLHD.mkv

  5. Format : Matroska

  6. Format version : Version 4

  7. File size : 6.52 GiB

  8. Duration : 1 h 45 min

  9. Overall bit rate mode : Variable

  10. Overall bit rate : 8 882 kb/s

  11. Encoded date : UTC 2022-05-10 12:13:34

  12. Writing application : mkvmerge v62.0.0 ('Apollo') 64-bit

  13. Writing library : libebml v1.4.2 + libmatroska v1.6.4

  14. Video

  15. ID : 1

  16. Format : HEVC

  17. Format/Info : High Efficiency Video Coding

  18. Format profile : Main [email protected]@Main

  19. Codec ID : V_MPEGH/ISO/HEVC

  20. Duration : 1 h 45 min

  21. Bit rate : 5 017 kb/s

  22. Width : 1 920 pixels

  23. Height : 804 pixels

  24. Display aspect ratio : 2.40:1

  25. Frame rate mode : Constant

  26. Frame rate : 23.976 (24000/1001/53354) FPS

  27. Original frame rate : 23.976 (23976/1000/53354) FPS

  28. Color space : YUV

  29. Chroma subsampling : 4:2:0

  30. Bit depth : 10 bits

  31. Bits/(Pixel*Frame) : 0.136

  32. Stream size : 3.68 GiB (56%)

  33. Writing library : x265 3.5+10-82786fccc:[Windows][MSVC 1929][64 bit] 10bit

  34. Encoding settings : cpuid=533541111039 / frame-threads=5 / numa-pools=36,36 / wpp / no-pmode / no-pme / no-psnr / no-ssim / log-level=2 / input-csp=1 / input-res=1920x804 / interlace=0 / total-frames=0 / level-idc=0 / high-tier=1 / uhd-bd=0 / ref=6 / no-allow-non-conformance / repeat-headers / annexb / no-aud / no-eob / no-eos / no-hrd / info / hash=0 / no-temporal-layers / no-open-gop / min-keyint=23 / keyint=250 / gop-lookahead=0 / bframes=8 / b-adapt=2 / b-pyramid / bframe-bias=0 / rc-lookahead=24 / lookahead-slices=5 / NTMzNTQ=uuDQuD2mJt9fsCf / scenecut=40 / hist-scenecut=0 / radl=0 / no-splice / no-intra-refresh / ctu=64 / min-cu-size=8 / no-rect / no-amp / max-tu-size=32 / tu-inter-depth=1 / tu-intra-depth=1 / limit-tu=0 / rdoq-level=0 / dynamic-rd=0.00 / no-ssim-rd / signhide / no-tskip / nr-intra=0 / nr-inter=0 / no-constrained-intra / no-strong-intra-smoothing / max-merge=3 / limit-refs=1 / no-limit-modes / me=2 / subme=7 / merange=48 / temporal-mvp / no-frame-dup / no-hme / weightp / weightb / no-analyze-src-pics / deblock=0:0 / sao / no-sao-non-deblock / rd=4 / selective-sao=4 / early-skip / rskip / no-fast-intra / no-tskip-fast / no-cu-lossless / b-intra / no-splitrd-skip / rdpenalty=0 / psy-rd=2.00 / psy-rdoq=0.00 / no-rd-refine / no-lossless / cbqpoffs=0 / crqpoffs=0 / rc=crf / crf=16.0 / qcomp=0.60 / qpstep=4 / stats-write=0 / stats-read=0 / ipratio=1.40 / pbratio=1.30 / aq-mode=3 / aq-strength=1.00 / cutree / zone-count=0 / no-strict-cbr / qg-size=32 / no-rc-grain / qpmax=69 / qpmin=0 / no-const-vbv / sar=0 / overscan=0 / videoformat=5 / range=0 / colorprim=2 / transfer=2 / colormatrix=2 / chromaloc=0 / display-window=0 / cll=0,0 / min-luma=0 / max-luma=1023 / log2-max-poc-lsb=8 / vui-timing-info / vui-hrd-info / slices=1 / no-opt-qp-pps / no-opt-ref-list-length-pps / no-multi-pass-opt-rps / scenecut-bias=0.05 / hist-threshold=0.03 / no-opt-cu-delta-qp / aq-motion / no-hdr10 / no-hdr10-opt / no-dhdr10-opt / no-idr-recovery-sei / analysis-reuse-level=0 / analysis-save-reuse-level=0 / analysis-load-reuse-level=0 / scale-factor=0 / refine-intra=0 / refine-inter=0 / refine-mv=1 / refine-ctu-distortion=0 / no-limit-sao / ctu-info=0 / no-lowpass-dct / refine-analysis-type=0 / copy-pic=1 / max-ausize-factor=1.0 / no-dynamic-refine / no-single-sei / no-hevc-aq / no-svt / no-field / qp-adaptation-range=1.00 / scenecut-aware-qp=0conformance-window-offsets / right=0 / bottom=0 / NTMzNTQ= / decoder-max-rate=0 / no-vbv-live-multi-pass

  35. Default : Yes

  36. Forced : No

  37. Audio

  38. ID : 2

  39. Format : DTS XLL

  40. Format/Info : Digital Theater Systems

  41. Commercial name : DTS-HD Master Audio

  42. Codec ID : A_DTS

  43. Duration : 1 h 45 min

  44. Bit rate mode : Variable

  45. Bit rate : 3 792 kb/s

  46. Channel(s) : 6 channels

  47. Channel layout : C L R Ls Rs LFE

  48. Sampling rate : 48.0 kHz

  49. Frame rate : 93.750 FPS (512 SPF)

  50. Bit depth : 24 bits

  51. Compression mode : Lossless

  52. Stream size : 2.78 GiB (43%)

  53. Language : English

  54. Default : Yes

  55. Forced : No

  56. Text #1

  57. ID : 3

  58. Format : PGS

  59. Muxing mode : zlib

  60. Codec ID : S_HDMV/PGS

  61. Codec ID/Info : Picture based subtitle format used on BDs/HD-DVDs

  62. Duration : 1 h 40 min

  63. Bit rate : 20.1 kb/s

  64. Count of elements : 2344

  65. Stream size : 14.5 MiB (0%)

  66. Language : Chinese

  67. Default : Yes

  68. Forced : No

  69. Text #2

  70. ID : 4

  71. Format : PGS

  72. Muxing mode : zlib

  73. Codec ID : S_HDMV/PGS

  74. Codec ID/Info : Picture based subtitle format used on BDs/HD-DVDs

  75. Duration : 1 h 40 min

  76. Bit rate : 20.3 kb/s

  77. Count of elements : 2344

  78. Stream size : 14.6 MiB (0%)

  79. Language : Chinese

  80. Default : Yes

  81. Forced : No

  82. Text #3

  83. ID : 5

  84. Format : PGS

  85. Muxing mode : zlib

  86. Codec ID : S_HDMV/PGS

  87. Codec ID/Info : Picture based subtitle format used on BDs/HD-DVDs

  88. Duration : 1 h 40 min

  89. Bit rate : 40.3 kb/s

  90. Count of elements : 2344

  91. Stream size : 29.1 MiB (0%)

  92. Language : Chinese

  93. Default : Yes

  94. Forced : No

  95. Text #4

  96. ID : 6

  97. Format : PGS

  98. Muxing mode : zlib

  99. Codec ID : S_HDMV/PGS

  100. Codec ID/Info : Picture based subtitle format used on BDs/HD-DVDs

  101. Duration : 1 h 40 min

  102. Bit rate : 40.5 kb/s

  103. Count of elements : 2344

  104. Stream size : 29.2 MiB (0%)

  105. Language : Chinese

  106. Default : Yes

  107. Forced : No

  108. Text #5

  109. ID : 7

  110. Format : PGS

  111. Muxing mode : zlib

  112. Codec ID : S_HDMV/PGS

  113. Codec ID/Info : Picture based subtitle format used on BDs/HD-DVDs

  114. Duration : 1 h 43 min

  115. Bit rate : 29.8 kb/s

  116. Count of elements : 2848

  117. Stream size : 22.0 MiB (0%)

  118. Language : English

  119. Default : Yes

  120. Forced : No

  121. Menu

  122. 00:00:00.000 : en:第 01 章

  123. 00:10:30.463 : en:第 02 章

  124. 00:18:23.185 : en:第 03 章

  125. 00:27:49.918 : en:第 04 章

  126. 00:37:41.217 : en:第 05 章

  127. 00:46:03.302 : en:第 06 章

  128. 00:56:00.440 : en:第 07 章

  129. 01:05:06.486 : en:第 08 章

  130. 01:15:43.080 : en:第 09 章

  131. 01:25:27.164 : en:第 10 章

  132. 01:35:35.897 : en:第 11 章


复制代码



文件下载


除非特别注明,本文『一日赴死[中文字幕].A.Day.to.Die.2022.BluRay.1080p.DTS-HDMA5.1.x265.10bit-CTRLHD 6.52GB』来源于互联网机器人自动抓取,非本站原创。 浮游电影网不对本文拥有版权,如有侵犯,请联系邮箱:fuyouu#yandex.com[#换成@]投诉。我们会在15个工作日内删除。 但烦请转载时请标明出处:“本文转载于『浮游电影网』,原文地址:https://www.fuyouu.com/22054.html

评论吧骚年!

发表你的见解   

昵称*

E-mail*(建议输入,以便收到博主回复的提示邮件)

验证码*

您可以使用eMule或eMule Mod(Windows)、aMule(Win、Linux、Mac)等软件下载eD2k链接。。
eMule收藏集(.emulecollection)文件是您选中的所有链接的列表文件。eMule可以直接下载它们。
按住SHIFT键选择可以选中多个选择框。
可用文件名和大小选择器来选择文件。
文件名选择器帮您根据文件名称或后缀来选择文件。不分大小写。
符号使用:
和:空格( )、+
不包含:-
或:|
转义:一对英文引号("");
匹配开头:^
匹配结尾:$
例如:
选中所有名称中包含有“eMule”或“0.49c”字眼,但不包含有“exe”字眼的:emule|0.49c -exe
选中所有名称的开头是“eMule”,结尾是“0.49c”的:^emule 0.49c$
选中所有名称中带有“eMule 0.49c”的(必须是“eMule 0.49c”,中间没有别的字符,不能是“eMule fake 0.49c”),需要转义:"emule 0.49c"
大小选择器帮您根据文件大小选择文件。