当前位置: 首页 >> 国产电影 >> 九龙笔之神兵觉醒[国语配音/中文字幕].The.Treasure.Code.2022.1080p.WEB-DL.H265.DDP2.0-CTRLWEB 1.42GB >> 正文

九龙笔之神兵觉醒[国语配音/中文字幕].The.Treasure.Code.2022.1080p.WEB-DL.H265.DDP2.0-CTRLWEB 1.42GB

2022年05月11日 21:10:46     电影发布:来源于网络     电影分类:国产电影     评论(0)    

◎译 名 九龙笔之神兵觉醒

◎年 代 2022

◎产 地 中国大陆

◎类 别 悬疑 / 古装

◎语 言 汉语普通话

◎上映日期 2022-05-10(中国大陆)

◎IMDb链接 https://www.imdb.com/title//

◎豆瓣链接 https://movie.douban.com/subject/35890449/

◎导 演 曾庆杰 Qingjie Zeng (id:1351650)

◎演 员 祁圣翰 Shenghan Qi (id:1433032)

任思齐 Michael Jen (id:1405577)

◎简 介

大理寺少卿祁凌再次接到皇上密诏,奉旨追查拥有灵异法力的“九龙笔”,并破解其中机密。祁凌多番查探后发现此物竟与死去的父亲有关,随着九龙笔的机关被层层打开,案件也逐渐明朗,但此时朝中各股势力也在暗潮涌动,一切都没有那么简单。

  1. ##### MediaInfo ######

  2. General

  3. Unique ID : 185236340348545155007563578721120374529 (0x8B5B38B208EEB27DE3F5E527E2F54F01)

  4. Complete name : The.Treasure.Code.2022.1080p.WEB-DL.H265.DDP2.0-CTRLWEB.mkv

  5. Format : Matroska

  6. Format version : Version 4

  7. File size : 1.42 GiB

  8. Duration : 1 h 15 min

  9. Overall bit rate : 2 677 kb/s

  10. Encoded date : UTC 2022-05-10 09:32:14

  11. Writing application : mkvmerge v67.0.0 ('Under Stars') 64-bit

  12. Writing library : libebml v1.4.2 + libmatroska v1.6.4

  13. Video

  14. ID : 1

  15. Format : HEVC

  16. Format/Info : High Efficiency Video Coding

  17. Format profile : [email protected]@Main

  18. Codec ID : V_MPEGH/ISO/HEVC

  19. Duration : 1 h 15 min

  20. Bit rate : 2 389 kb/s

  21. Width : 1 920 pixels

  22. Height : 840 pixels

  23. Display aspect ratio : 2.25:1

  24. Frame rate mode : Constant

  25. Frame rate : 24.000 FPS

  26. Color space : YUV

  27. Chroma subsampling : 4:2:0

  28. Bit depth : 8 bits

  29. Bits/(Pixel*Frame) : 0.062

  30. Stream size : 1.26 GiB (89%)

  31. Default : Yes

  32. Forced : No

  33. Audio #1

  34. ID : 2

  35. Format : E-AC-3

  36. Format/Info : Enhanced AC-3

  37. Commercial name : Dolby Digital Plus

  38. Codec ID : A_EAC3

  39. Duration : 1 h 15 min

  40. Bit rate mode : Constant

  41. Bit rate : 96.0 kb/s

  42. Channel(s) : 2 channels

  43. Channel layout : L R

  44. Sampling rate : 48.0 kHz

  45. Frame rate : 31.250 FPS (1536 SPF)

  46. Compression mode : Lossy

  47. Stream size : 52.0 MiB (4%)

  48. Language : Chinese

  49. Service kind : Complete Main

  50. Default : Yes

  51. Forced : No

  52. Audio #2

  53. ID : 3

  54. Format : AAC LC

  55. Format/Info : Advanced Audio Codec Low Complexity

  56. Codec ID : A_AAC-2

  57. Duration : 1 h 15 min

  58. Bit rate : 192 kb/s

  59. Channel(s) : 2 channels

  60. Channel layout : L R

  61. Sampling rate : 44.1 kHz

  62. Frame rate : 43.066 FPS (1024 SPF)

  63. Compression mode : Lossy

  64. Stream size : 103 MiB (7%)

  65. Default : Yes

  66. Forced : No


复制代码



文件下载


除非特别注明,本文『九龙笔之神兵觉醒[国语配音/中文字幕].The.Treasure.Code.2022.1080p.WEB-DL.H265.DDP2.0-CTRLWEB 1.42GB』来源于互联网机器人自动抓取,非本站原创。 浮游电影网不对本文拥有版权,如有侵犯,请联系邮箱:fuyouu#yandex.com[#换成@]投诉。我们会在15个工作日内删除。 但烦请转载时请标明出处:“本文转载于『浮游电影网』,原文地址:https://www.fuyouu.com/22052.html

评论吧骚年!

发表你的见解   

昵称*

E-mail*(建议输入,以便收到博主回复的提示邮件)

验证码*

您可以使用eMule或eMule Mod(Windows)、aMule(Win、Linux、Mac)等软件下载eD2k链接。。
eMule收藏集(.emulecollection)文件是您选中的所有链接的列表文件。eMule可以直接下载它们。
按住SHIFT键选择可以选中多个选择框。
可用文件名和大小选择器来选择文件。
文件名选择器帮您根据文件名称或后缀来选择文件。不分大小写。
符号使用:
和:空格( )、+
不包含:-
或:|
转义:一对英文引号("");
匹配开头:^
匹配结尾:$
例如:
选中所有名称中包含有“eMule”或“0.49c”字眼,但不包含有“exe”字眼的:emule|0.49c -exe
选中所有名称的开头是“eMule”,结尾是“0.49c”的:^emule 0.49c$
选中所有名称中带有“eMule 0.49c”的(必须是“eMule 0.49c”,中间没有别的字符,不能是“eMule fake 0.49c”),需要转义:"emule 0.49c"
大小选择器帮您根据文件大小选择文件。