当前位置: 首页 >> 港台电影 >> 新上海滩[国语配音/中文字幕].Shanghai.Grand.1996.BluRay.1080p.x265.10bit.2Audio-MiniHD 4.47GB >> 正文

新上海滩[国语配音/中文字幕].Shanghai.Grand.1996.BluRay.1080p.x265.10bit.2Audio-MiniHD 4.47GB

2022年05月11日 21:08:45     电影发布:来源于网络     电影分类:港台电影     评论(0)    

◎译 名 新上海滩 / Shanghai Grand

◎片 名 新上海灘

◎年 代 1996

◎产 地 中国香港

◎类 别 动作 / 惊悚 / 犯罪

◎语 言 粤语 / 汉语普通话 / 英语

◎上映日期 1996-07-13(中国香港)

◎IMDb链接 https://www.imdb.com/title/tt0117619/

◎豆瓣评分 7.7/10 (51076人评价)

◎豆瓣链接 https://movie.douban.com/subject/1293142/

◎片 长 96分钟

◎导 演 潘文杰 Man Kit Poon (id:1294725)

◎编 剧 邹凯光 Matt Chow (id:1275121)

潘文杰 Man Kit Poon (id:1294725)

邵丽琼 Sandy Shaw (id:1321540)

◎演 员 张国荣 Leslie Cheung (id:1003494)

刘德华 Andy Lau (id:1054424)

宁静 Jing Ning (id:1046132)

李蕙敏 Amanda Lee (id:1103819)

吴兴国 Hsing-kuo Wu (id:1301324)

刘洵 Shun Lau (id:1274304)

黄佩霞 Almen Wong Pui-Ha (id:1165716)

李健仁 Kin-Yan Lee (id:1315575)

郑雨盛 Woo-sung Jung (id:1032365)

张济平 Jiping Zhang (id:1329827)

陈健一 Kin-Yat Chan (id:1389327)

叶进 Chun Yip (id:1345684)

曹秋根 Qiugen Cao (id:1274774)

韩冬青 (id:1470910)

向华强 Charles Heung (id:1037691)

徐克 Hark Tsui (id:1007152)

馮鳳珍 Rita Fung (id:1441554)

胡伟立 Wai Lap Wu (id:1275249)

李厚襄 Hao Hsiang Li (id:1363111)

黄英华 Ying-Wah Wong (id:1301204)

马楚成 Jingle Ma (id:1280599)

潘恒生 Hang-Sang Poon (id:1294721)

萧楠 Nan Hsiao (id:1377596)

麦子善 Marco Mak (id:1280638)

余家安 Bruce Yu (id:1301555)

张世宏 Silver Cheung (id:1318916)

余家安 Bruce Yu (id:1301555)

邓汝好 Pat Tang Yu-Ho (id:1403989)

田启文 Kai Man Tin (id:1315882)

聂春申 Chunshen Nie (id:1396549)

麦启光 Albert Kai-kwong Mak (id:1349070)

周惠坤 Thomas Chow (id:1330717)

董玮 Wai Tung (id:1299617)

罗礼贤 Bruce Law (id:1289542)

白光 Guang Bai (id:1317326)

◎简 介

年轻军官许文强(张国荣)逃往路上被日本特务伏击堕海,漂浮到外滩岸上时身体不支晕倒,丁力(刘德华)路过欲将其救却遭其下意识的武力,两人一番打斗后结为好友。丁力偶然救下上海大亨冯敬尧(吴兴国)的千金冯程程(宁静)后,许下心愿要娶其为妻,但襄王有梦神女却心另有所属,冯程程只把他当好朋友,爱的恰是某次旅途中在火车上结识的他的好兄弟许文强,而许文强也因她的勇敢善良机智对她产生了好感。

许文强再次遇上冯程程时,激情没能控制,与丁力的交情画上句号。而当许文强与冯程程谈婚论嫁时,许文强意外发现冯敬尧正是追杀他和同僚的幕后黑手,他的身份也被对方认出,火药味顿时弥漫房间。

◎获奖情况 (共4项)

第16届香港电影金像奖 (1997)

最佳摄影(提名)

└──潘恒生 (id:1294721)

最佳美术指导(提名)

└──余家安 (id:1301555)

最佳服装造型设计(提名)

└──余家安 (id:1301555)

最佳动作设计(提名)

└──董玮 (id:1299617)

  1. ##### MediaInfo ######

  2. General

  3. Unique ID : 253633431870929998568384267504244830046 (0xBED005AA8F6A7D02AEE2567D13DD2F5E)

  4. Complete name : Shanghai.Grand.1996.BluRay.1080p.x265.10bit.2Audio-MiniHD.mkv

  5. Format : Matroska

  6. Format version : Version 4

  7. File size : 4.47 GiB

  8. Duration : 1 h 35 min

  9. Overall bit rate : 6 671 kb/s

  10. Encoded date : UTC 2016-06-23 10:29:50

  11. Writing application : mkvmerge v9.1.0 ('Little Earthquakes') 32bit

  12. Writing library : libebml v1.3.3 + libmatroska v1.4.4

  13. Video

  14. ID : 1

  15. Format : HEVC

  16. Format/Info : High Efficiency Video Coding

  17. Format profile : Main [email protected]@Main

  18. Codec ID : V_MPEGH/ISO/HEVC

  19. Duration : 1 h 35 min

  20. Bit rate : 5 258 kb/s

  21. Width : 1 920 pixels

  22. Height : 1 080 pixels

  23. Display aspect ratio : 16:9

  24. Frame rate mode : Constant

  25. Frame rate : 24.000 FPS

  26. Color space : YUV

  27. Chroma subsampling : 4:2:0

  28. Bit depth : 10 bits

  29. Bits/(Pixel*Frame) : 0.106

  30. Stream size : 3.52 GiB (79%)

  31. Writing library : x265 1.9+200-6098ba3e0cf16b11:[Windows][GCC 5.3.0][64 bit] 10bit

  32. Encoding settings : wpp / ctu=32 / min-cu-size=8 / max-tu-size=16 / tu-intra-depth=2 / tu-inter-depth=2 / me=3 / subme=5 / merange=27 / no-rect / no-amp / max-merge=3 / temporal-mvp / no-early-skip / no-recursion-skip / rdpenalty=1 / no-tskip / no-tskip-fast / no-strong-intra-smoothing / no-lossless / no-cu-lossless / no-constrained-intra / no-fast-intra / no-open-gop / no-temporal-layers / interlace=0 / keyint=360 / min-keyint=1 / NTMzNTQ=uuDQuD2mJt9fsCf / scenecut=40 / rc-lookahead=60 / lookahead-slices=4 / bframes=8 / bframe-bias=0 / b-adapt=2 / ref=5 / limit-refs=3 / limit-modes / weightp / weightb / aq-mode=1 / qg-size=16 / aq-strength=1.00 / cbqpoffs=0 / crqpoffs=0 / rd=4 / psy-rd=0.30 / rdoq-level=1 / psy-rdoq=5.00 / no-rd-refine / signhide / deblock=0:0 / no-sao / no-sao-non-deblock / b-pyramid / no-cutree / no-intra-refresh / rc=crf / crf=20.0 / qcomp=0.70 / qpmin=0 / qpmax=51 / qpstep=4 / ipratio=1.10 / pbratio=1.20

  33. Default : Yes

  34. Forced : No

  35. Color range : Limited

  36. Color primaries : BT.709

  37. Audio #1

  38. ID : 2

  39. Format : AC-3

  40. Format/Info : Audio Coding 3

  41. Commercial name : Dolby Digital

  42. Codec ID : A_AC3

  43. Duration : 1 h 35 min

  44. Bit rate mode : Constant

  45. Bit rate : 640 kb/s

  46. Channel(s) : 6 channels

  47. Channel layout : L R C LFE Ls Rs

  48. Sampling rate : 48.0 kHz

  49. Frame rate : 31.250 FPS (1536 SPF)

  50. Compression mode : Lossy

  51. Stream size : 439 MiB (10%)

  52. Language : Chinese

  53. Service kind : Complete Main

  54. Default : Yes

  55. Forced : No

  56. Audio #2

  57. ID : 3

  58. Format : AC-3

  59. Format/Info : Audio Coding 3

  60. Commercial name : Dolby Digital

  61. Codec ID : A_AC3

  62. Duration : 1 h 35 min

  63. Bit rate mode : Constant

  64. Bit rate : 640 kb/s

  65. Channel(s) : 6 channels

  66. Channel layout : L R C LFE Ls Rs

  67. Sampling rate : 48.0 kHz

  68. Frame rate : 31.250 FPS (1536 SPF)

  69. Compression mode : Lossy

  70. Stream size : 439 MiB (10%)

  71. Language : Chinese

  72. Service kind : Complete Main

  73. Default : No

  74. Forced : No

  75. Text #1

  76. ID : 4

  77. Format : PGS

  78. Muxing mode : zlib

  79. Codec ID : S_HDMV/PGS

  80. Codec ID/Info : Picture based subtitle format used on BDs/HD-DVDs

  81. Language : Chinese

  82. Default : Yes

  83. Forced : No

  84. Text #2

  85. ID : 5

  86. Format : PGS

  87. Muxing mode : zlib

  88. Codec ID : S_HDMV/PGS

  89. Codec ID/Info : Picture based subtitle format used on BDs/HD-DVDs

  90. Language : English

  91. Default : No

  92. Forced : No

  93. Menu

  94. 00:00:00.000 : en:Chapter 01

  95. 00:07:22.041 : en:Chapter 02

  96. 00:10:01.333 : en:Chapter 03

  97. 00:15:47.000 : en:Chapter 04

  98. 00:20:45.500 : en:Chapter 05

  99. 00:26:16.000 : en:Chapter 06

  100. 00:28:16.041 : en:Chapter 07

  101. 00:33:43.541 : en:Chapter 08

  102. 00:38:28.958 : en:Chapter 09

  103. 00:42:57.083 : en:Chapter 10

  104. 00:47:29.916 : en:Chapter 11

  105. 00:51:23.291 : en:Chapter 12

  106. 00:55:42.000 : en:Chapter 13

  107. 01:02:31.000 : en:Chapter 14

  108. 01:07:50.666 : en:Chapter 15

  109. 01:11:44.041 : en:Chapter 16

  110. 01:15:51.916 : en:Chapter 17

  111. 01:20:21.250 : en:Chapter 18

  112. 01:24:14.083 : en:Chapter 19

  113. 01:29:11.666 : en:Chapter 20


复制代码



文件下载


除非特别注明,本文『新上海滩[国语配音/中文字幕].Shanghai.Grand.1996.BluRay.1080p.x265.10bit.2Audio-MiniHD 4.47GB』来源于互联网机器人自动抓取,非本站原创。 浮游电影网不对本文拥有版权,如有侵犯,请联系邮箱:fuyouu#yandex.com[#换成@]投诉。我们会在15个工作日内删除。 但烦请转载时请标明出处:“本文转载于『浮游电影网』,原文地址:https://www.fuyouu.com/22050.html

评论吧骚年!

发表你的见解   

昵称*

E-mail*(建议输入,以便收到博主回复的提示邮件)

验证码*

您可以使用eMule或eMule Mod(Windows)、aMule(Win、Linux、Mac)等软件下载eD2k链接。。
eMule收藏集(.emulecollection)文件是您选中的所有链接的列表文件。eMule可以直接下载它们。
按住SHIFT键选择可以选中多个选择框。
可用文件名和大小选择器来选择文件。
文件名选择器帮您根据文件名称或后缀来选择文件。不分大小写。
符号使用:
和:空格( )、+
不包含:-
或:|
转义:一对英文引号("");
匹配开头:^
匹配结尾:$
例如:
选中所有名称中包含有“eMule”或“0.49c”字眼,但不包含有“exe”字眼的:emule|0.49c -exe
选中所有名称的开头是“eMule”,结尾是“0.49c”的:^emule 0.49c$
选中所有名称中带有“eMule 0.49c”的(必须是“eMule 0.49c”,中间没有别的字符,不能是“eMule fake 0.49c”),需要转义:"emule 0.49c"
大小选择器帮您根据文件大小选择文件。