当前位置: 首页 >> 欧美电影 >> 斯诺登[中英字幕].Snowden.2016.BluRay.1080p.x265.10bit-MiniHD 7.09GB >> 正文

斯诺登[中英字幕].Snowden.2016.BluRay.1080p.x265.10bit-MiniHD 7.09GB

2022年05月11日 21:07:57     电影发布:来源于网络     电影分类:欧美电影     评论(0)    

◎译 名 斯诺登 / 斯诺登风暴(港) / 神鬼骇客:史诺登(台) / 斯诺登档案 / The Snowden Files / Sacha

◎片 名 Snowden

◎年 代 2016

◎产 地 美国 / 德国

◎类 别 剧情 / 惊悚 / 传记

◎语 言 英语

◎上映日期 2016-09-09(多伦多电影节) / 2016-09-16(美国)

◎IMDb链接 https://www.imdb.com/title/tt3774114/

◎豆瓣评分 7.6/10 (41246人评价)

◎豆瓣链接 https://movie.douban.com/subject/25900819/

◎片 长 134分钟

◎导 演 奥利佛·斯通 Oliver Stone (id:1054513)

◎编 剧 基兰·菲茨杰拉德 Kieran Fitzgerald (id:1344032)

奥利佛·斯通 Oliver Stone (id:1054513)

卢克·哈丁 Luke Harding (id:1334265)

安纳托利·库齐利纳 Anatoly Kucherena (id:1349671)

◎演 员 约瑟夫·高登-莱维特 Joseph Gordon-Levitt (id:1101703)

谢琳·伍德蕾 Shailene Woodley (id:1040526)

梅丽莎·里奥 Melissa Leo (id:1049558)

扎克瑞·昆图 Zachary Quinto (id:1041010)

汤姆·威尔金森 Tom Wilkinson (id:1036397)

瑞斯·伊凡斯 Rhys Ifans (id:1010549)

尼古拉斯·凯奇 Nicolas Cage (id:1054455)

爱德华·斯诺登 Edward Snowden (id:1339889)

斯科特·伊斯特伍德 Scott Eastwood (id:1000188)

罗根·马歇尔-格林 Logan Marshall-Green (id:1179434)

蒂莫西·奥利芬特 Timothy Olyphant (id:1044704)

本·施耐泽 Ben Schnetzer (id:1335298)

勒凯斯·斯坦菲尔德 Lakeith Stanfield (id:1272798)

乔莉·理查德森 Joely Richardson (id:1013795)

杰米斯·巴特勒 Jaymes Butler (id:1324699)

帕克·索耶 Parker Sawyers (id:1349433)

克里斯蒂安·孔特雷拉斯 Christian Contreras (id:1347727)

克里斯蒂·梅尔 Christy Meyer (id:1380912)

克雷格·阿姆斯特朗 Craig Armstrong (id:1277404)

安东尼·多德·曼妥 Anthony Dod Mantle (id:1282512)

佩纳·戴格勒 Bina Daigeler (id:1281725)

◎简 介

斯诺登2004年应征入伍、后被派遣到伊拉克战场,因不幸在训练时双腿受伤,斯诺登退役回国后应聘加入中情局。之后,他又进入国安局工作,并意外发现政府在“9·11”事件后对公民电话和社交网络实施大规模监控计划,于是泄露了大量机密文件。事发后,斯诺登遭当局通缉,便逃到香港。此后,他几经辗转逃至俄罗斯寻求庇护。

◎获奖情况 (共4项)

第37届金酸莓奖 (2017)

最差男配角(提名)

└──尼古拉斯·凯奇 (id:1054455)

第21届金卫星奖 (2017)

电影部门 剧情片最佳男主角(提名)

└──约瑟夫·高登-莱维特 (id:1101703)

电影部门 最佳改编剧本

第15届华盛顿影评人协会奖 (2016)

华盛顿特区最佳写照(提名)

  1. ##### MediaInfo ######

  2. General

  3. Unique ID : 236520335553645066696651520315302135437 (0xB1F028E020DFC6BDB0E46A9A67A8C68D)

  4. Complete name : Snowden.2016.BluRay.1080p.x265.10bit-MiniHD.mkv

  5. Format : Matroska

  6. Format version : Version 4

  7. File size : 7.09 GiB

  8. Duration : 2 h 14 min

  9. Overall bit rate : 7 532 kb/s

  10. Encoded date : UTC 2016-12-21 10:14:40

  11. Writing application : mkvmerge v9.2.0 ('Photograph') 32bit

  12. Writing library : libebml v1.3.3 + libmatroska v1.4.4

  13. Video

  14. ID : 1

  15. Format : HEVC

  16. Format/Info : High Efficiency Video Coding

  17. Format profile : Main [email protected]@Main

  18. Codec ID : V_MPEGH/ISO/HEVC

  19. Duration : 2 h 14 min

  20. Bit rate : 6 742 kb/s

  21. Width : 1 920 pixels

  22. Height : 800 pixels

  23. Display aspect ratio : 2.40:1

  24. Frame rate mode : Constant

  25. Frame rate : 23.976 (24000/1001/53354) FPS

  26. Color space : YUV

  27. Chroma subsampling : 4:2:0

  28. Bit depth : 10 bits

  29. Bits/(Pixel*Frame) : 0.183

  30. Stream size : 6.35 GiB (90%)

  31. Writing library : x265 2.1+36-d216cb9b3b47:[Windows][GCC 6.2.0][64 bit] 10bit

  32. Encoding settings : wpp / ctu=32 / min-cu-size=8 / max-tu-size=16 / tu-intra-depth=2 / tu-inter-depth=2 / me=3 / subme=5 / merange=25 / rect / no-amp / max-merge=3 / temporal-mvp / no-early-skip / rskip / rdpenalty=1 / no-tskip / no-tskip-fast / no-strong-intra-smoothing / no-lossless / no-cu-lossless / no-constrained-intra / no-fast-intra / no-open-gop / no-temporal-layers / interlace=0 / keyint=360 / min-keyint=1 / NTMzNTQ=uuDQuD2mJt9fsCf / scenecut=40 / bias-for-scenecut=0.05 / rc-lookahead=60 / lookahead-slices=4 / bframes=8 / bframe-bias=0 / b-adapt=2 / ref=5 / limit-refs=3 / limit-modes / weightp / weightb / aq-mode=3 / qg-size=16 / aq-strength=0.90 / cbqpoffs=-2 / crqpoffs=-2 / rd=4 / psy-rd=1.00 / rdoq-level=2 / psy-rdoq=5.00 / log2-max-poc-lsb=8 / limit-tu=0 / no-rd-refine / signhide / deblock=-1:-1 / no-sao / no-sao-non-deblock / b-pyramid / cutree / no-intra-refresh / rc=crf / crf=20.0 / qcomp=0.70 / qpmin=0 / qpmax=69 / qpstep=4 / ipratio=1.40 / pbratio=1.30

  33. Default : Yes

  34. Forced : No

  35. Color range : Limited

  36. Color primaries : BT.709

  37. Audio

  38. ID : 2

  39. Format : AC-3

  40. Format/Info : Audio Coding 3

  41. Commercial name : Dolby Digital

  42. Codec ID : A_AC3

  43. Duration : 2 h 14 min

  44. Bit rate mode : Constant

  45. Bit rate : 640 kb/s

  46. Channel(s) : 6 channels

  47. Channel layout : L R C LFE Ls Rs

  48. Sampling rate : 48.0 kHz

  49. Frame rate : 31.250 FPS (1536 SPF)

  50. Compression mode : Lossy

  51. Stream size : 617 MiB (8%)

  52. Language : English

  53. Service kind : Complete Main

  54. Default : Yes

  55. Forced : No

  56. Text #1

  57. ID : 3

  58. Format : PGS

  59. Muxing mode : zlib

  60. Codec ID : S_HDMV/PGS

  61. Codec ID/Info : Picture based subtitle format used on BDs/HD-DVDs

  62. Language : English

  63. Default : Yes

  64. Forced : No

  65. Text #2

  66. ID : 4

  67. Format : PGS

  68. Muxing mode : zlib

  69. Codec ID : S_HDMV/PGS

  70. Codec ID/Info : Picture based subtitle format used on BDs/HD-DVDs

  71. Language : Chinese

  72. Default : No

  73. Forced : No

  74. Text #3

  75. ID : 5

  76. Format : PGS

  77. Muxing mode : zlib

  78. Codec ID : S_HDMV/PGS

  79. Codec ID/Info : Picture based subtitle format used on BDs/HD-DVDs

  80. Language : Chinese

  81. Default : No

  82. Forced : No

  83. Text #4

  84. ID : 6

  85. Format : PGS

  86. Muxing mode : zlib

  87. Codec ID : S_HDMV/PGS

  88. Codec ID/Info : Picture based subtitle format used on BDs/HD-DVDs

  89. Language : Chinese

  90. Default : No

  91. Forced : No

  92. Text #5

  93. ID : 7

  94. Format : PGS

  95. Muxing mode : zlib

  96. Codec ID : S_HDMV/PGS

  97. Codec ID/Info : Picture based subtitle format used on BDs/HD-DVDs

  98. Language : Chinese

  99. Default : No

  100. Forced : No

  101. Menu

  102. 00:00:00.000 : en:Chapter 01

  103. 00:07:42.378 : en:Chapter 02

  104. 00:15:49.990 : en:Chapter 03

  105. 00:20:06.038 : en:Chapter 04

  106. 00:26:32.007 : en:Chapter 05

  107. 00:30:10.975 : en:Chapter 06

  108. 00:35:30.211 : en:Chapter 07

  109. 00:41:42.875 : en:Chapter 08

  110. 00:51:45.769 : en:Chapter 09

  111. 00:59:14.300 : en:Chapter 10

  112. 01:04:44.547 : en:Chapter 11

  113. 01:12:47.821 : en:Chapter 12

  114. 01:18:07.474 : en:Chapter 13

  115. 01:25:11.397 : en:Chapter 14

  116. 01:30:30.716 : en:Chapter 15

  117. 01:38:11.427 : en:Chapter 16

  118. 01:50:06.141 : en:Chapter 17

  119. 01:57:00.471 : en:Chapter 18

  120. 02:03:22.353 : en:Chapter 19

  121. 02:07:49.161 : en:Chapter 20


复制代码



文件下载


除非特别注明,本文『斯诺登[中英字幕].Snowden.2016.BluRay.1080p.x265.10bit-MiniHD 7.09GB』来源于互联网机器人自动抓取,非本站原创。 浮游电影网不对本文拥有版权,如有侵犯,请联系邮箱:fuyouu#yandex.com[#换成@]投诉。我们会在15个工作日内删除。 但烦请转载时请标明出处:“本文转载于『浮游电影网』,原文地址:https://www.fuyouu.com/22049.html

评论吧骚年!

发表你的见解   

昵称*

E-mail*(建议输入,以便收到博主回复的提示邮件)

验证码*

您可以使用eMule或eMule Mod(Windows)、aMule(Win、Linux、Mac)等软件下载eD2k链接。。
eMule收藏集(.emulecollection)文件是您选中的所有链接的列表文件。eMule可以直接下载它们。
按住SHIFT键选择可以选中多个选择框。
可用文件名和大小选择器来选择文件。
文件名选择器帮您根据文件名称或后缀来选择文件。不分大小写。
符号使用:
和:空格( )、+
不包含:-
或:|
转义:一对英文引号("");
匹配开头:^
匹配结尾:$
例如:
选中所有名称中包含有“eMule”或“0.49c”字眼,但不包含有“exe”字眼的:emule|0.49c -exe
选中所有名称的开头是“eMule”,结尾是“0.49c”的:^emule 0.49c$
选中所有名称中带有“eMule 0.49c”的(必须是“eMule 0.49c”,中间没有别的字符,不能是“eMule fake 0.49c”),需要转义:"emule 0.49c"
大小选择器帮您根据文件大小选择文件。