当前位置: 首页 >> 日韩电影 >> 共同警备区[中英字幕].Stoker.2013.BluRay.1080p.x265.10bit-MiniHD 4.47GB >> 正文

共同警备区[中英字幕].Stoker.2013.BluRay.1080p.x265.10bit-MiniHD 4.47GB

2022年05月11日 21:07:05     电影发布:来源于网络     电影分类:日韩电影     评论(0)    

◎译 名 共同警备区 / 共同警戒区(台) / JSA安全地带 / 共同警备区域JSA / 联合防卫领域 / Joint Security Area

◎片 名 ?????? JSA

◎年 代 2000

◎产 地 韩国

◎类 别 剧情

◎语 言 韩语 / 英语 / 德语

◎上映日期 2000-09-09(韩国)

◎IMDb链接 https://www.imdb.com/title/tt0260991/

◎豆瓣评分 8.8/10 (85680人评价)

◎豆瓣链接 https://movie.douban.com/subject/1306664/

◎片 长 110分钟

◎导 演 朴赞郁 Chan-wook Park (id:1137414)

◎编 剧 金炫锡 Hyeon-seok Kim (id:1288538)

李无影 Mu-yeong Lee (id:1329993)

郑成山 Sung-san Jung (id:1331106)

朴赞郁 Chan-wook Park (id:1137414)

朴尚渊 Sang-yeon Park (id:1021916)

◎演 员 李英爱 Yeong-ae Lee (id:1004933)

李秉宪 Byung-hun Lee (id:1105108)

宋康昊 Kang-ho Song (id:1031238)

金太祐 Tae-woo Kim (id:1001149)

申河均 Ha-kyun Shin (id:1140667)

Herbert Ulrich Herbert Ulrich (id:1197462)

李汉伟 Han-wi Lee (id:1316561)

奇周峯 Joo-bong Ki (id:1051277)

陈泰贤 Zin Tae Hyun (id:1006728)

李代延 Dae-yeon Lee (id:1042754)

林一圭 Lim il-kyu (id:1376445)

金明秀 Myeong-su Kim (id:1373923)

权南熙 Nam-hee Kwon (id:1381699)

金明秀 Myoeng-su Kim (id:1173461)

朴胜裴 Seung-Bae Park (id:1424326)

李恩秀 Eun Soo Lee (id:1289663)

沈载明 Shim Jae Myung (id:1337773)

曹永旭 Yeong-wook Jo (id:1287735)

金成福 Sung-Bok Kim (id:1452407)

金尚范 Sang-bum Kim (id:1288546)

金相满 Sang-man Kim (id:1335872)

◎简 介

板门店边界的共同警备区,一天,哨所里的朝鲜士兵(申河均饰)为来路不明的子弹所杀,引发双方枪战。而最有嫌疑的凶手是同在边界上的韩国士兵,但韩国一方却指责是朝鲜先调起事端,双方都认为对手应该对此负责。

为了解决这一无头案件,南北双方同意由一个中立国来进行调查协调。瑞士国籍韩国女孩苏菲(李英爱饰)受派前来调查事件,韩国这边的李秀赫(李秉宪饰)始终保持沉默,而朝鲜一边的幸存者吴敬必(宋康昊饰)却表现出敌意,事情扑朔迷离。随着深入了解,苏菲发现事情隐藏著内幕,现场还另有其人……

◎获奖情况 (共2项)

第51届柏林国际电影节 (2001)

金熊奖 最佳影片(提名)

└──朴赞郁 (id:1137414)

第22届香港电影金像奖 (2003)

最佳亚洲电影(提名)

  1. ##### MediaInfo ######

  2. General

  3. Unique ID : 211014508887609739716448285907174946961 (0x9EBFEA87EEFD53B1B0394838FB89F891)

  4. Complete name : Stoker.2013.BluRay.1080p.x265.10bit-MiniHD.mkv

  5. Format : Matroska

  6. Format version : Version 4

  7. File size : 4.47 GiB

  8. Duration : 1 h 38 min

  9. Overall bit rate : 6 467 kb/s

  10. Encoded date : UTC 2017-03-20 05:58:01

  11. Writing application : mkvmerge v9.7.1 ('Pandemonium') 64bit

  12. Writing library : libebml v1.3.4 + libmatroska v1.4.5

  13. Video

  14. ID : 1

  15. Format : HEVC

  16. Format/Info : High Efficiency Video Coding

  17. Format profile : Main [email protected]@Main

  18. Codec ID : V_MPEGH/ISO/HEVC

  19. Duration : 1 h 38 min

  20. Bit rate : 5 698 kb/s

  21. Width : 1 920 pixels

  22. Height : 800 pixels

  23. Display aspect ratio : 2.40:1

  24. Frame rate mode : Constant

  25. Frame rate : 23.976 (24000/1001/53354) FPS

  26. Color space : YUV

  27. Chroma subsampling : 4:2:0

  28. Bit depth : 10 bits

  29. Bits/(Pixel*Frame) : 0.155

  30. Stream size : 3.94 GiB (88%)

  31. Writing library : x265 2.3+7-c15f8bce9f4b:[Windows][GCC 6.3.0][64 bit] 10bit

  32. Encoding settings : cpuid=533541173503 / frame-threads=6 / numa-pools=36 / wpp / no-pmode / no-pme / no-psnr / no-ssim / log-level=2 / input-csp=1 / input-res=1920x800 / interlace=0 / total-frames=142322 / level-idc=0 / high-tier=1 / uhd-bd=0 / ref=5 / no-allow-non-conformance / no-repeat-headers / annexb / no-aud / no-hrd / info / hash=0 / no-temporal-layers / no-open-gop / min-keyint=1 / keyint=360 / bframes=8 / b-adapt=2 / b-pyramid / bframe-bias=0 / rc-lookahead=60 / lookahead-slices=4 / NTMzNTQ=uuDQuD2mJt9fsCf / scenecut=40 / no-intra-refresh / ctu=32 / min-cu-size=8 / rect / no-amp / max-tu-size=16 / tu-inter-depth=2 / tu-intra-depth=2 / limit-tu=0 / rdoq-level=2 / dynamic-rd=0.00 / signhide / no-tskip / nr-intra=0 / nr-inter=0 / no-constrained-intra / no-strong-intra-smoothing / max-merge=3 / limit-refs=2 / limit-modes / me=3 / subme=5 / merange=25 / temporal-mvp / weightp / weightb / no-analyze-src-pics / deblock=-1:-1 / no-sao / no-sao-non-deblock / rd=4 / no-early-skip / rskip / no-fast-intra / no-tskip-fast / no-cu-lossless / b-intra / rdpenalty=1 / psy-rd=0.00 / psy-rdoq=5.00 / no-rd-refine / analysis-mode=0 / no-lossless / cbqpoffs=-2 / crqpoffs=-2 / rc=crf / crf=19.0 / qcomp=0.70 / qpstep=4 / stats-write=0 / stats-read=0 / ipratio=1.40 / pbratio=1.30 / aq-mode=3 / aq-strength=0.80 / cutree / zone-count=0 / no-strict-cbr / qg-size=16 / no-rc-grain / qpmax=69 / qpmin=0 / sar=0 / overscan=0 / videoformat=5 / range=0 / colorprim=1 / transfer=2 / colormatrix=2 / chromaloc=0 / display-window=0 / max-cll=0,0 / min-luma=0 / max-luma=1023 / log2-max-poc-lsb=8 / vui-timing-info / vui-hrd-info / slices=1 / opt-qp-pps / opt-ref-list-length-pps / no-multi-pass-opt-rps / scenecut-bias=0.05 / no-opt-cu-delta-qp / no-aq-motion / no-hdr / no-hdr-opt / Capture-colorprim=3

  33. Default : Yes

  34. Forced : No

  35. Color range : Limited

  36. Color primaries : BT.709

  37. Audio

  38. ID : 2

  39. Format : AC-3

  40. Format/Info : Audio Coding 3

  41. Commercial name : Dolby Digital

  42. Codec ID : A_AC3

  43. Duration : 1 h 38 min

  44. Bit rate mode : Constant

  45. Bit rate : 640 kb/s

  46. Channel(s) : 6 channels

  47. Channel layout : L R C LFE Ls Rs

  48. Sampling rate : 48.0 kHz

  49. Frame rate : 31.250 FPS (1536 SPF)

  50. Compression mode : Lossy

  51. Stream size : 453 MiB (10%)

  52. Language : English

  53. Service kind : Complete Main

  54. Default : Yes

  55. Forced : No

  56. Text #1

  57. ID : 3

  58. Format : PGS

  59. Muxing mode : zlib

  60. Codec ID : S_HDMV/PGS

  61. Codec ID/Info : Picture based subtitle format used on BDs/HD-DVDs

  62. Language : English

  63. Default : Yes

  64. Forced : No

  65. Text #2

  66. ID : 4

  67. Format : PGS

  68. Muxing mode : zlib

  69. Codec ID : S_HDMV/PGS

  70. Codec ID/Info : Picture based subtitle format used on BDs/HD-DVDs

  71. Language : Chinese

  72. Default : No

  73. Forced : No

  74. Text #3

  75. ID : 5

  76. Format : PGS

  77. Muxing mode : zlib

  78. Codec ID : S_HDMV/PGS

  79. Codec ID/Info : Picture based subtitle format used on BDs/HD-DVDs

  80. Language : Chinese

  81. Default : No

  82. Forced : No

  83. Menu

  84. 00:00:00.000 : en:Chapter 01

  85. 00:03:48.603 : en:Chapter 02

  86. 00:04:37.277 : en:Chapter 03

  87. 00:07:26.863 : en:Chapter 04

  88. 00:08:42.146 : en:Chapter 05

  89. 00:13:28.557 : en:Chapter 06

  90. 00:16:59.810 : en:Chapter 07

  91. 00:19:24.955 : en:Chapter 08

  92. 00:22:27.095 : en:Chapter 09

  93. 00:26:50.066 : en:Chapter 10

  94. 00:30:26.533 : en:Chapter 11

  95. 00:34:43.289 : en:Chapter 12

  96. 00:39:18.564 : en:Chapter 13

  97. 00:41:47.505 : en:Chapter 14

  98. 00:46:14.772 : en:Chapter 15

  99. 00:49:42.729 : en:Chapter 16

  100. 00:52:46.830 : en:Chapter 17

  101. 00:54:50.495 : en:Chapter 18

  102. 00:59:21.558 : en:Chapter 19

  103. 01:02:43.050 : en:Chapter 20

  104. 01:07:04.186 : en:Chapter 21

  105. 01:08:38.239 : en:Chapter 22

  106. 01:15:24.895 : en:Chapter 23

  107. 01:18:14.773 : en:Chapter 24

  108. 01:22:11.927 : en:Chapter 25

  109. 01:26:22.510 : en:Chapter 26

  110. 01:31:17.472 : en:Chapter 27

  111. 01:34:38.214 : en:Chapter 28


复制代码



文件下载


除非特别注明,本文『共同警备区[中英字幕].Stoker.2013.BluRay.1080p.x265.10bit-MiniHD 4.47GB』来源于互联网机器人自动抓取,非本站原创。 浮游电影网不对本文拥有版权,如有侵犯,请联系邮箱:fuyouu#yandex.com[#换成@]投诉。我们会在15个工作日内删除。 但烦请转载时请标明出处:“本文转载于『浮游电影网』,原文地址:https://www.fuyouu.com/22048.html

评论吧骚年!

发表你的见解   

昵称*

E-mail*(建议输入,以便收到博主回复的提示邮件)

验证码*

您可以使用eMule或eMule Mod(Windows)、aMule(Win、Linux、Mac)等软件下载eD2k链接。。
eMule收藏集(.emulecollection)文件是您选中的所有链接的列表文件。eMule可以直接下载它们。
按住SHIFT键选择可以选中多个选择框。
可用文件名和大小选择器来选择文件。
文件名选择器帮您根据文件名称或后缀来选择文件。不分大小写。
符号使用:
和:空格( )、+
不包含:-
或:|
转义:一对英文引号("");
匹配开头:^
匹配结尾:$
例如:
选中所有名称中包含有“eMule”或“0.49c”字眼,但不包含有“exe”字眼的:emule|0.49c -exe
选中所有名称的开头是“eMule”,结尾是“0.49c”的:^emule 0.49c$
选中所有名称中带有“eMule 0.49c”的(必须是“eMule 0.49c”,中间没有别的字符,不能是“eMule fake 0.49c”),需要转义:"emule 0.49c"
大小选择器帮您根据文件大小选择文件。