当前位置: 首页 >> 欧美电影 >> 断背山[中英字幕].Brokeback.Mountain.2005.BluRay.1080p.x265.10bit-MiniHD 3.65GB >> 正文

断背山[中英字幕].Brokeback.Mountain.2005.BluRay.1080p.x265.10bit-MiniHD 3.65GB

2022年05月11日 21:06:12     电影发布:来源于网络     电影分类:欧美电影     评论(0)    

◎译 名 断背山 / 断臂山 / BBM

◎片 名 Brokeback Mountain

◎年 代 2005

◎产 地 美国 / 加拿大

◎类 别 剧情 / 爱情 / 同性 / 家庭

◎语 言 英语

◎上映日期 2005-09-02(威尼斯电影节) / 2006-01-06(加拿大) / 2006-01-13(美国)

◎IMDb链接 https://www.imdb.com/title/tt0388795/

◎豆瓣评分 8.8/10 (652292人评价)

◎豆瓣链接 https://movie.douban.com/subject/1418834/

◎片 长 134分钟

◎导 演 李安 Ang Lee (id:1054421)

◎编 剧 拉里·麦克穆特瑞 Larry McMurtry (id:1018394)

黛安娜·奥撒纳 Diana Ossana (id:1293694)

安妮·普鲁 Annie Proulx (id:1130757)

◎演 员 希斯·莱杰 Heath Ledger (id:1006957)

杰克·吉伦哈尔 Jake Gyllenhaal (id:1048002)

米歇尔·威廉姆斯 Michelle Williams (id:1049491)

安妮·海瑟薇 Anne Hathaway (id:1048027)

凯特·玛拉 Kate Mara (id:1031801)

兰迪·奎德 Randy Quaid (id:1027846)

琳达·卡德里尼 Linda Cardellini (id:1010545)

安娜·法瑞丝 Anna Faris (id:1041008)

格拉汉姆·贝克尔 Graham Beckel (id:1066615)

斯科特·迈克尔·坎贝尔 Scott Michael Campbell (id:1076076)

大卫·哈伯 David Harbour (id:1225637)

罗伯塔·马克斯韦尔 Roberta Maxwell (id:1334661)

皮特·麦克罗比 Peter McRobbie (id:1117237)

夏恩·希尔 Cheyenne Hill (id:1218276)

布鲁克琳·普劳克斯 Brooklynn Proulx (id:1045020)

杰克·丘奇 Jake Church (id:1390120)

罗德里戈·普列托 Rodrigo Prieto (id:1276623)

Murray Ord Murray Ord (id:1293610)

黛安娜·奥撒纳 Diana Ossana (id:1293694)

迈克尔·豪斯曼 Michael Hausman (id:1286234)

Scott Ferguson Scott Ferguson (id:1283599)

詹姆斯·夏慕斯 James Schamus (id:1050276)

古斯塔沃·桑多拉拉 Gustavo Santaolalla (id:1023055)

罗德里戈·普列托 Rodrigo Prieto (id:1276623)

迪伦·蒂奇纳 Dylan Tichenor (id:1299252)

艾薇·考夫曼 Avy Kaufman (id:1288224)

朱迪·贝克尔 Judy Becker (id:1335574)

曼奥·罗切蒂 Manlio Rocchetti (id:1295835)

琳达·梅拉佐 Linda Melazzo (id:1291788)

Penny Thompson Penny Thompson (id:1299204)

皮埃尔·特伦布莱 Pierre Tremblay (id:1299493)

Brad Moerke Brad Moerke (id:1292272)

迈克尔·豪斯曼 Michael Hausman (id:1286234)

路易斯·莫林 Louis Morin (id:1292516)

◎简 介

美国怀俄明州的西部,沉默寡言的农夫恩尼斯(希斯?莱杰饰)和热情开朗的牛仔杰克(杰克?吉伦希尔饰)一道被派到山上牧羊,那里人迹罕至,他们只有与羊群为伴,生活单调无味。一个天寒地冻的夜晚,在酒精与荷尔蒙的作用下,他们做了“不该做的事情”,也就此他们在断背山上度过了人生中最美好的时光。

季节性放牧结束,迫于世俗压力,杰克和恩尼斯不舍地与对方分离并各自结婚生子。恩尼斯迎娶了自幼相识的阿尔玛,并有了两个可爱的女儿;杰克到了德州,在妻子露琳家族的扶植下事业顺利,还有了个儿子。虽然彼此真心相应,他们只能每年定期约会。一边知情的阿尔玛痛苦无比,而他们又无法满足一年只有几天的团聚。这时意外发生……

◎获奖情况 (共28项)

第78届奥斯卡金像奖 (2006)

最佳影片(提名)

最佳导演

└──李安 (id:1054421)

最佳男主角(提名)

└──希斯·莱杰 (id:1006957)

最佳男配角(提名)

└──杰克·吉伦哈尔 (id:1048002)

最佳女配角(提名)

└──米歇尔·威廉姆斯 (id:1049491)

最佳改编剧本

最佳摄影(提名)

└──罗德里戈·普列托 (id:1276623)

最佳原创配乐

└──古斯塔沃·桑多拉拉 (id:1023055)

第62届威尼斯电影节 (2005)

主竞赛单元 金狮奖

└──李安 (id:1054421)

第63届金球奖 (2006)

电影类 最佳剧情片

电影类 最佳导演

└──李安 (id:1054421)

电影类 剧情片最佳男主角(提名)

└──希斯·莱杰 (id:1006957)

电影类 最佳女配角(提名)

└──米歇尔·威廉姆斯 (id:1049491)

电影类 最佳编剧

电影类 最佳原创配乐(提名)

└──古斯塔沃·桑多拉拉 (id:1023055)

电影类 最佳原创歌曲

第59届英国电影学院奖 (2006)

电影奖 最佳影片

电影奖 最佳导演

└──李安 (id:1054421)

电影奖 最佳男主角(提名)

└──希斯·莱杰 (id:1006957)

电影奖 最佳男配角

└──杰克·吉伦哈尔 (id:1048002)

电影奖 最佳女配角(提名)

└──米歇尔·威廉姆斯 (id:1049491)

电影奖 最佳改编剧本

电影奖 最佳摄影(提名)

└──罗德里戈·普列托 (id:1276623)

电影奖 最佳剪辑(提名)

电影奖 最佳原创音乐(提名)

└──古斯塔沃·桑多拉拉 (id:1023055)

第15届MTV电影奖 (2006)

MTV电影奖 最佳表演

└──杰克·吉伦哈尔 (id:1048002)

MTV电影奖 最佳吻戏

第6届美国电影学会奖 (2005)

年度佳片

  1. ##### MediaInfo ######

  2. General

  3. Unique ID : 193792847266316652192324056195585402432 (0x91CB250EB7C324A0ABACD2BAAFA1E640)

  4. Complete name : Brokeback.Mountain.2005.BluRay.1080p.x265.10bit-MiniHD.mkv

  5. Format : Matroska

  6. Format version : Version 4

  7. File size : 3.65 GiB

  8. Duration : 2 h 14 min

  9. Overall bit rate : 3 888 kb/s

  10. Encoded date : UTC 2016-05-20 04:44:06

  11. Writing application : mkvmerge v9.1.0 ('Little Earthquakes') 32bit

  12. Writing library : libebml v1.3.3 + libmatroska v1.4.4

  13. Video

  14. ID : 1

  15. Format : HEVC

  16. Format/Info : High Efficiency Video Coding

  17. Format profile : Main [email protected]@Main

  18. Codec ID : V_MPEGH/ISO/HEVC

  19. Duration : 2 h 14 min

  20. Bit rate : 3 217 kb/s

  21. Width : 1 918 pixels

  22. Height : 1 040 pixels

  23. Display aspect ratio : 1.85:1

  24. Frame rate mode : Constant

  25. Frame rate : 23.976 (24000/1001/53354) FPS

  26. Color space : YUV

  27. Chroma subsampling : 4:2:0

  28. Bit depth : 10 bits

  29. Bits/(Pixel*Frame) : 0.067

  30. Stream size : 3.02 GiB (83%)

  31. Writing library : x265 1.9+96-b09998b1256e:[Windows][GCC 5.3.0][64 bit] 10bit

  32. Encoding settings : wpp / ctu=32 / min-cu-size=8 / max-tu-size=16 / tu-intra-depth=2 / tu-inter-depth=2 / me=2 / subme=5 / merange=27 / no-rect / no-amp / max-merge=3 / temporal-mvp / no-early-skip / rdpenalty=1 / no-tskip / no-tskip-fast / no-strong-intra-smoothing / no-lossless / no-cu-lossless / no-constrained-intra / no-fast-intra / no-open-gop / no-temporal-layers / interlace=0 / keyint=360 / min-keyint=1 / NTMzNTQ=uuDQuD2mJt9fsCf / scenecut=40 / rc-lookahead=60 / lookahead-slices=4 / bframes=8 / bframe-bias=0 / b-adapt=2 / ref=5 / limit-refs=3 / limit-modes / weightp / weightb / aq-mode=1 / qg-size=16 / aq-strength=1.00 / cbqpoffs=0 / crqpoffs=0 / rd=4 / psy-rd=0.30 / rdoq-level=1 / psy-rdoq=5.00 / no-rd-refine / signhide / deblock=-1:-1 / no-sao / no-sao-non-deblock / b-pyramid / cutree / no-intra-refresh / rc=crf / crf=19.0 / qcomp=0.60 / qpmin=0 / qpmax=51 / qpstep=4 / ipratio=1.40 / pbratio=1.30

  33. Default : Yes

  34. Forced : No

  35. Color range : Limited

  36. Color primaries : BT.709

  37. Audio

  38. ID : 2

  39. Format : AC-3

  40. Format/Info : Audio Coding 3

  41. Commercial name : Dolby Digital

  42. Codec ID : A_AC3

  43. Duration : 2 h 14 min

  44. Bit rate mode : Constant

  45. Bit rate : 640 kb/s

  46. Channel(s) : 6 channels

  47. Channel layout : L R C LFE Ls Rs

  48. Sampling rate : 48.0 kHz

  49. Frame rate : 31.250 FPS (1536 SPF)

  50. Compression mode : Lossy

  51. Stream size : 615 MiB (16%)

  52. Language : English

  53. Service kind : Complete Main

  54. Default : Yes

  55. Forced : No

  56. Text #1

  57. ID : 3

  58. Format : PGS

  59. Muxing mode : zlib

  60. Codec ID : S_HDMV/PGS

  61. Codec ID/Info : Picture based subtitle format used on BDs/HD-DVDs

  62. Duration : 2 h 6 min

  63. Bit rate : 9 687 b/s

  64. Count of elements : 2810

  65. Stream size : 8.78 MiB (0%)

  66. Language : English

  67. Default : Yes

  68. Forced : No

  69. Text #2

  70. ID : 4

  71. Format : PGS

  72. Muxing mode : zlib

  73. Codec ID : S_HDMV/PGS

  74. Codec ID/Info : Picture based subtitle format used on BDs/HD-DVDs

  75. Duration : 2 h 5 min

  76. Bit rate : 10.5 kb/s

  77. Count of elements : 2246

  78. Stream size : 9.42 MiB (0%)

  79. Language : Chinese

  80. Default : No

  81. Forced : No

  82. Text #3

  83. ID : 5

  84. Format : PGS

  85. Muxing mode : zlib

  86. Codec ID : S_HDMV/PGS

  87. Codec ID/Info : Picture based subtitle format used on BDs/HD-DVDs

  88. Duration : 2 h 7 min

  89. Bit rate : 10.7 kb/s

  90. Count of elements : 2248

  91. Stream size : 9.74 MiB (0%)

  92. Language : Chinese

  93. Default : No

  94. Forced : No

  95. Menu

  96. 00:00:00.000 : en:Chapter 01

  97. 00:06:52.161 : en:Chapter 02

  98. 00:11:35.194 : en:Chapter 03

  99. 00:17:35.429 : en:Chapter 04

  100. 00:23:00.879 : en:Chapter 05

  101. 00:28:46.933 : en:Chapter 06

  102. 00:34:34.447 : en:Chapter 07

  103. 00:41:10.551 : en:Chapter 08

  104. 00:45:03.951 : en:Chapter 09

  105. 00:53:29.497 : en:Chapter 10

  106. 01:00:21.909 : en:Chapter 11

  107. 01:05:14.452 : en:Chapter 12

  108. 01:13:10.844 : en:Chapter 13

  109. 01:19:35.729 : en:Chapter 14

  110. 01:29:28.738 : en:Chapter 15

  111. 01:40:24.268 : en:Chapter 16

  112. 01:49:45.996 : en:Chapter 17

  113. 01:55:19.120 : en:Chapter 18

  114. 02:02:39.894 : en:Chapter 19

  115. 02:07:47.951 : en:Chapter 20

  116. 02:14:18.717 : en:Chapter 21


复制代码



文件下载


除非特别注明,本文『断背山[中英字幕].Brokeback.Mountain.2005.BluRay.1080p.x265.10bit-MiniHD 3.65GB』来源于互联网机器人自动抓取,非本站原创。 浮游电影网不对本文拥有版权,如有侵犯,请联系邮箱:fuyouu#yandex.com[#换成@]投诉。我们会在15个工作日内删除。 但烦请转载时请标明出处:“本文转载于『浮游电影网』,原文地址:https://www.fuyouu.com/22047.html

评论吧骚年!

发表你的见解   

昵称*

E-mail*(建议输入,以便收到博主回复的提示邮件)

验证码*

您可以使用eMule或eMule Mod(Windows)、aMule(Win、Linux、Mac)等软件下载eD2k链接。。
eMule收藏集(.emulecollection)文件是您选中的所有链接的列表文件。eMule可以直接下载它们。
按住SHIFT键选择可以选中多个选择框。
可用文件名和大小选择器来选择文件。
文件名选择器帮您根据文件名称或后缀来选择文件。不分大小写。
符号使用:
和:空格( )、+
不包含:-
或:|
转义:一对英文引号("");
匹配开头:^
匹配结尾:$
例如:
选中所有名称中包含有“eMule”或“0.49c”字眼,但不包含有“exe”字眼的:emule|0.49c -exe
选中所有名称的开头是“eMule”,结尾是“0.49c”的:^emule 0.49c$
选中所有名称中带有“eMule 0.49c”的(必须是“eMule 0.49c”,中间没有别的字符,不能是“eMule fake 0.49c”),需要转义:"emule 0.49c"
大小选择器帮您根据文件大小选择文件。