当前位置: 首页 >> 欧美电影 >> 断箭[国英多音轨/中英字幕].Broken.Arrow.1996.BluRay.1080p.x265.10bit.2Audio-MiniHD 5.88GB >> 正文

断箭[国英多音轨/中英字幕].Broken.Arrow.1996.BluRay.1080p.x265.10bit.2Audio-MiniHD 5.88GB

2022年05月11日 21:05:16     电影发布:来源于网络     电影分类:欧美电影     评论(0)    

◎译 名 断箭 / 断箭行动(港)

◎片 名 Broken Arrow

◎年 代 1996

◎产 地 美国

◎类 别 动作 / 惊悚 / 犯罪

◎语 言 英语

◎上映日期 1996-02-09(美国)

◎IMDb链接 https://www.imdb.com/title/tt0115759/

◎豆瓣评分 7.3/10 (43735人评价)

◎豆瓣链接 https://movie.douban.com/subject/1293317/

◎片 长 108分钟

◎导 演 吴宇森 John Woo (id:1027853)

◎编 剧 格雷厄姆·约斯特 Graham Yost (id:1322426)

◎演 员 克里斯蒂安·史莱特 Christian Slater (id:1022597)

约翰·特拉沃尔塔 John Travolta (id:1054426)

萨曼莎·玛西丝 Samantha Mathis (id:1048132)

德尔罗伊·林多 Delroy Lindo (id:1040621)

鲍勃·冈顿 Bob Gunton (id:1041179)

弗兰克·威利 Frank Whaley (id:1010646)

豪威?隆 Howie Long (id:1115243)

沃迪·科蒂斯·霍尔 Vondie Curtis-Hall (id:1074193)

杰克·汤普森 Jack Thompson (id:1152253)

维托·鲁吉尼斯 Vyto Ruginis (id:1324327)

Ousaun Elam Ousaun Elam (id:1283084)

肖恩·托布 Shaun Toub (id:1317723)

凯西·比格斯 Casey Biggs (id:1064769)

Jeffrey Stephan Jeffrey Stephan (id:1360822)

Joey Box Joey Box (id:1077452)

Jon W. Kishi Jon W. Kishi (id:1360823)

Myke Schwartz Myke Schwartz (id:1297011)

吉姆·帕尔默 Jim Palmer (id:1293854)

Vince Deadrick Sr. Vince Deadrick Sr. (id:1360824)

Charlie Brewer Charlie Brewer (id:1276707)

Gary Epper Gary Epper (id:1079123)

马里奥罗伯茨 Mario Roberts (id:1295776)

J.N. Roberts J.N. Roberts (id:1360825)

柯特伍德·史密斯 Kurtwood Smith (id:1010600)

丹尼尔·冯·巴根 Daniel von Bargen (id:1165516)

布鲁斯·霍尔曼 Bruce Holman (id:1096432)

卡门·阿尔根齐亚诺 Carmen Argenziano (id:1057303)

布拉德·刘易斯 Brad Lewis (id:1289939)

Bill Badalato Bill Badalato (id:1277670)

Allison Lyon Segan Allison Lyon Segan (id:1297143)

汉斯·季默 Hans Zimmer (id:1054386)

彼得·莱维 Peter Levy (id:1276248)

乔·哈欣 Joe Hutshing (id:1287228)

约翰·赖特 John Wright (id:1301301)

Donna Isaacson Donna Isaacson (id:1287387)

Richard C. Goddard Richard C. Goddard (id:1284996)

Mary Malin Mary Malin (id:1290803)

苏珊·V·卡利诺夫斯基 Susan V. Kalinowski (id:1288039)

科琳·卡拉甘 Colleen Callaghan (id:1279892)

Jeanne Van Phue Jeanne Van Phue (id:1299857)

米歇尔·布勒 Michelle Bühler (id:1279844)

Angela Nogaro Angela Nogaro (id:1293245)

莎朗·伊尔森 Sharon Ilson (id:1287309)

加里·海姆斯 Gary Hymes (id:1287237)

David Ticotin David Ticotin (id:1299255)

Eric Durst Eric Durst (id:1282861)

克里斯托弗·埃文斯 Christopher Evans (id:1283336)

Jennifer German Jennifer German (id:1284737)

马修·格拉茨纳 Matthew Gratzner (id:1285331)

Rhonda C. Gunner Rhonda C. Gunner (id:1285640)

理查德·E·霍兰德尔 Richard E. Hollander (id:1286808)

伊恩·亨特 Ian Hunter (id:1287177)

雷·麦金太尔 Ray McIntyre Jr. (id:1291625)

Anthony 'Max' Ivins Anthony 'Max' Ivins (id:1287451)

Josh R. Jaggars Josh R. Jaggars (id:1287538)

丹·考夫曼 Dan Kaufman (id:1288219)

布拉德·库恩 Brad Kuehn (id:1289086)

Lawrence Littleton Lawrence Littleton (id:1290161)

Olivier Sarda Olivier Sarda (id:1296696)

Tim Donahue Tim Donahue (id:1282562)

约翰·德斯贾尔丁 John 'D.J.' Des Jardin (id:1282276)

Dobbie Schiff Dobbie Schiff (id:1302632)

雅克·斯特罗维斯 Jacques Stroweis (id:1298561)

David Sosalla David Sosalla (id:1298080)

Karl J. Martin Karl J. Martin (id:1291132)

Apurva Shah Apurva Shah (id:1297294)

克莱格·巴朗 Craig Barron (id:1277981)

Andrea D'Amico Andrea D'Amico (id:1281681)

Mike Chambers Mike Chambers (id:1280410)

◎简 介

飞行员迪克斯(约翰?特拉沃塔 John Travolta 饰)和希尔上教(克里斯汀?史莱特 Christian Slater 饰)搭档多年,虽然表现出色,但一直没有获得晋升。心中不服气的迪克斯决定用自己的手段向政府讨回他应得的一切。于是,在一次飞行任务中,迪克斯为了劫持隐形飞机上的两枚核弹,将希尔打出了机舱,幸亏希尔携带有降落伞,才幸免于难。迪克斯取得核弹后,向政府要挟巨额赎金,不然就将在城市中引爆核弹。另一方面,希尔和美丽女警泰丽(萨曼莎?玛西丝 Samantha Mathis 饰)正在极力追寻迪克斯,抢回核弹!

  1. ##### MediaInfo ######

  2. General

  3. Unique ID : 208031180673195466354588250920606094700 (0x9C815918003765E38ABE9EBFBC0DD56C)

  4. Complete name : Broken.Arrow.1996.BluRay.1080p.x265.10bit.2Audio-MiniHD.mkv

  5. Format : Matroska

  6. Format version : Version 4

  7. File size : 5.88 GiB

  8. Duration : 1 h 48 min

  9. Overall bit rate : 7 766 kb/s

  10. Encoded date : UTC 2016-08-05 06:32:35

  11. Writing application : mkvmerge v9.2.0 ('Photograph') 32bit

  12. Writing library : libebml v1.3.3 + libmatroska v1.4.4

  13. Video

  14. ID : 1

  15. Format : HEVC

  16. Format/Info : High Efficiency Video Coding

  17. Format profile : Main [email protected]@Main

  18. Codec ID : V_MPEGH/ISO/HEVC

  19. Duration : 1 h 48 min

  20. Bit rate : 6 332 kb/s

  21. Width : 1 920 pixels

  22. Height : 812 pixels

  23. Display aspect ratio : 2.35:1

  24. Frame rate mode : Constant

  25. Frame rate : 23.976 (24000/1001/53354) FPS

  26. Color space : YUV

  27. Chroma subsampling : 4:2:0

  28. Bit depth : 10 bits

  29. Bits/(Pixel*Frame) : 0.169

  30. Stream size : 4.79 GiB (82%)

  31. Writing library : x265 1.9+229-a932b4366235:[Windows][GCC 5.3.1][64 bit] 10bit

  32. Encoding settings : wpp / ctu=32 / min-cu-size=8 / max-tu-size=16 / tu-intra-depth=2 / tu-inter-depth=2 / me=3 / subme=5 / merange=22 / no-rect / no-amp / max-merge=3 / temporal-mvp / no-early-skip / rskip / rdpenalty=1 / no-tskip / no-tskip-fast / no-strong-intra-smoothing / no-lossless / no-cu-lossless / no-constrained-intra / no-fast-intra / no-open-gop / no-temporal-layers / interlace=0 / keyint=360 / min-keyint=1 / NTMzNTQ=uuDQuD2mJt9fsCf / scenecut=40 / rc-lookahead=60 / lookahead-slices=4 / bframes=8 / bframe-bias=0 / b-adapt=2 / ref=5 / limit-refs=3 / limit-modes / weightp / weightb / aq-mode=1 / qg-size=16 / aq-strength=0.90 / cbqpoffs=0 / crqpoffs=0 / rd=4 / psy-rd=0.30 / rdoq-level=1 / psy-rdoq=5.00 / no-rd-refine / signhide / deblock=-1:-1 / no-sao / no-sao-non-deblock / b-pyramid / cutree / no-intra-refresh / rc=crf / crf=20.0 / qcomp=0.70 / qpmin=0 / qpmax=51 / qpstep=4 / ipratio=1.40 / pbratio=1.30

  33. Default : Yes

  34. Forced : No

  35. Color range : Limited

  36. Color primaries : BT.709

  37. Audio #1

  38. ID : 2

  39. Format : AC-3

  40. Format/Info : Audio Coding 3

  41. Commercial name : Dolby Digital

  42. Codec ID : A_AC3

  43. Duration : 1 h 48 min

  44. Bit rate mode : Constant

  45. Bit rate : 640 kb/s

  46. Channel(s) : 6 channels

  47. Channel layout : L R C LFE Ls Rs

  48. Sampling rate : 48.0 kHz

  49. Frame rate : 31.250 FPS (1536 SPF)

  50. Compression mode : Lossy

  51. Stream size : 496 MiB (8%)

  52. Language : English

  53. Service kind : Complete Main

  54. Default : Yes

  55. Forced : No

  56. Audio #2

  57. ID : 3

  58. Format : AC-3

  59. Format/Info : Audio Coding 3

  60. Commercial name : Dolby Digital

  61. Codec ID : A_AC3

  62. Duration : 1 h 48 min

  63. Bit rate mode : Constant

  64. Bit rate : 640 kb/s

  65. Channel(s) : 6 channels

  66. Channel layout : L R C LFE Ls Rs

  67. Sampling rate : 48.0 kHz

  68. Frame rate : 31.250 FPS (1536 SPF)

  69. Compression mode : Lossy

  70. Stream size : 496 MiB (8%)

  71. Language : Chinese

  72. Service kind : Complete Main

  73. Default : No

  74. Forced : No

  75. Text #1

  76. ID : 4

  77. Format : PGS

  78. Muxing mode : zlib

  79. Codec ID : S_HDMV/PGS

  80. Codec ID/Info : Picture based subtitle format used on BDs/HD-DVDs

  81. Language : English

  82. Default : Yes

  83. Forced : No

  84. Text #2

  85. ID : 5

  86. Format : PGS

  87. Muxing mode : zlib

  88. Codec ID : S_HDMV/PGS

  89. Codec ID/Info : Picture based subtitle format used on BDs/HD-DVDs

  90. Language : Chinese

  91. Default : No

  92. Forced : No

  93. Text #3

  94. ID : 6

  95. Format : PGS

  96. Muxing mode : zlib

  97. Codec ID : S_HDMV/PGS

  98. Codec ID/Info : Picture based subtitle format used on BDs/HD-DVDs

  99. Language : Chinese

  100. Default : No

  101. Forced : No

  102. Text #4

  103. ID : 7

  104. Format : PGS

  105. Muxing mode : zlib

  106. Codec ID : S_HDMV/PGS

  107. Codec ID/Info : Picture based subtitle format used on BDs/HD-DVDs

  108. Language : Chinese

  109. Default : No

  110. Forced : No

  111. Text #5

  112. ID : 8

  113. Format : PGS

  114. Muxing mode : zlib

  115. Codec ID : S_HDMV/PGS

  116. Codec ID/Info : Picture based subtitle format used on BDs/HD-DVDs

  117. Language : Chinese

  118. Default : No

  119. Forced : No

  120. Text #6

  121. ID : 9

  122. Format : PGS

  123. Muxing mode : zlib

  124. Codec ID : S_HDMV/PGS

  125. Codec ID/Info : Picture based subtitle format used on BDs/HD-DVDs

  126. Language : Chinese

  127. Default : No

  128. Forced : No

  129. Text #7

  130. ID : 10

  131. Format : PGS

  132. Muxing mode : zlib

  133. Codec ID : S_HDMV/PGS

  134. Codec ID/Info : Picture based subtitle format used on BDs/HD-DVDs

  135. Language : Chinese

  136. Default : No

  137. Forced : No

  138. Menu

  139. 00:00:00.000 : en:Chapter 01

  140. 00:05:28.286 : en:Chapter 02

  141. 00:13:03.157 : en:Chapter 03

  142. 00:17:41.977 : en:Chapter 04

  143. 00:20:00.908 : en:Chapter 05

  144. 00:22:59.336 : en:Chapter 06

  145. 00:26:38.930 : en:Chapter 07

  146. 00:33:55.241 : en:Chapter 08

  147. 00:42:54.655 : en:Chapter 09

  148. 00:50:53.008 : en:Chapter 10

  149. 00:53:59.402 : en:Chapter 11

  150. 01:04:42.712 : en:Chapter 12

  151. 01:08:48.165 : en:Chapter 13

  152. 01:11:17.147 : en:Chapter 14

  153. 01:14:29.882 : en:Chapter 15

  154. 01:18:00.509 : en:Chapter 16

  155. 01:20:56.184 : en:Chapter 17

  156. 01:26:34.189 : en:Chapter 18

  157. 01:28:49.532 : en:Chapter 19

  158. 01:30:31.175 : en:Chapter 20

  159. 01:33:05.580 : en:Chapter 21

  160. 01:42:13.418 : en:Chapter 22


复制代码



文件下载


除非特别注明,本文『断箭[国英多音轨/中英字幕].Broken.Arrow.1996.BluRay.1080p.x265.10bit.2Audio-MiniHD 5.88GB』来源于互联网机器人自动抓取,非本站原创。 浮游电影网不对本文拥有版权,如有侵犯,请联系邮箱:fuyouu#yandex.com[#换成@]投诉。我们会在15个工作日内删除。 但烦请转载时请标明出处:“本文转载于『浮游电影网』,原文地址:https://www.fuyouu.com/22046.html

评论吧骚年!

发表你的见解   

昵称*

E-mail*(建议输入,以便收到博主回复的提示邮件)

验证码*

您可以使用eMule或eMule Mod(Windows)、aMule(Win、Linux、Mac)等软件下载eD2k链接。。
eMule收藏集(.emulecollection)文件是您选中的所有链接的列表文件。eMule可以直接下载它们。
按住SHIFT键选择可以选中多个选择框。
可用文件名和大小选择器来选择文件。
文件名选择器帮您根据文件名称或后缀来选择文件。不分大小写。
符号使用:
和:空格( )、+
不包含:-
或:|
转义:一对英文引号("");
匹配开头:^
匹配结尾:$
例如:
选中所有名称中包含有“eMule”或“0.49c”字眼,但不包含有“exe”字眼的:emule|0.49c -exe
选中所有名称的开头是“eMule”,结尾是“0.49c”的:^emule 0.49c$
选中所有名称中带有“eMule 0.49c”的(必须是“eMule 0.49c”,中间没有别的字符,不能是“eMule fake 0.49c”),需要转义:"emule 0.49c"
大小选择器帮您根据文件大小选择文件。