当前位置: 首页 >> 海外电影 >> 空中撤离[中英字幕].Airlift.2016.BluRay.1080p.x265.10bit-MiniHD 4.44GB >> 正文

空中撤离[中英字幕].Airlift.2016.BluRay.1080p.x265.10bit-MiniHD 4.44GB

2022年05月11日 21:03:25     电影发布:来源于网络     电影分类:海外电影     评论(0)    

◎译 名 空中撤离 / 撤离科威特 / 空运

◎片 名 Airlift

◎年 代 2016

◎产 地 印度

◎类 别 剧情 / 动作 / 历史

◎语 言 印地语 / 阿拉伯语 / 马拉雅拉姆语

◎上映日期 2016-01-22(印度)

◎IMDb链接 https://www.imdb.com/title/tt4387040/

◎豆瓣评分 6.9/10 (2125人评价)

◎豆瓣链接 https://movie.douban.com/subject/26386317/

◎片 长 130分钟

◎导 演 拉加·门农 Raja Menon (id:1356787)

◎编 剧 拉加·门农 Raja Menon (id:1356787)

瑞提什·沙阿 Ritesh Shah (id:1319729)

苏雷什·奈尔 Suresh Nair (id:1319711)

拉胡尔·南贾 Rahul Nangia (id:1356788)

◎演 员 阿克谢·库玛尔 Akshay Kumar (id:1049615)

尼姆拉特·考尔 Nimrat Kaur (id:1341838)

库玛·米什拉 Kumud Mishra (id:1365265)

普拉卡什·贝尔拉迪 Prakash Belawadi (id:1353717)

帕鲁布·科里 Purab Kohli (id:1366653)

◎简 介

根据真实故事改编,1990年8月,伊拉克对科威特发动侵略战争,萨达姆-侯赛因下令其军队悍然入侵科威特,意图将科威特变为伊拉克的第十九个省,17万印度侨民滞留科威特,一位旅居科威特多年的印度侨民兰吉特;挺身而出,带领17万印度侨民逃离危险的科威特。

  1. ##### MediaInfo ######

  2. General

  3. Unique ID : 194700700952665794303625264868153645591 (0x9279FDB33601F3618C77D73249705A17)

  4. Complete name : Airlift.2016.BluRay.1080p.x265.10bit-MiniHD.mkv

  5. Format : Matroska

  6. Format version : Version 4

  7. File size : 4.43 GiB

  8. Duration : 2 h 6 min

  9. Overall bit rate : 5 014 kb/s

  10. Encoded date : UTC 2016-05-03 01:09:53

  11. Writing application : mkvmerge v7.5.0 ('Glass Culture') 64bit built on Jan 4 2015 16:48:44

  12. Writing library : libebml v1.3.1 + libmatroska v1.4.2

  13. Video

  14. ID : 1

  15. Format : HEVC

  16. Format/Info : High Efficiency Video Coding

  17. Codec ID : V_MPEGH/ISO/HEVC

  18. Duration : 2 h 6 min

  19. Bit rate : 4 274 kb/s

  20. Width : 1 920 pixels

  21. Height : 824 pixels

  22. Display aspect ratio : 2.35:1

  23. Frame rate mode : Constant

  24. Frame rate : 24.000 FPS

  25. Bits/(Pixel*Frame) : 0.113

  26. Stream size : 3.78 GiB (85%)

  27. Default : Yes

  28. Forced : No

  29. Audio

  30. ID : 2

  31. Format : AC-3

  32. Format/Info : Audio Coding 3

  33. Commercial name : Dolby Digital

  34. Codec ID : A_AC3

  35. Duration : 2 h 6 min

  36. Bit rate mode : Constant

  37. Bit rate : 640 kb/s

  38. Channel(s) : 6 channels

  39. Channel layout : L R C LFE Ls Rs

  40. Sampling rate : 48.0 kHz

  41. Frame rate : 31.250 FPS (1536 SPF)

  42. Compression mode : Lossy

  43. Stream size : 580 MiB (13%)

  44. Language : Hindi

  45. Service kind : Complete Main

  46. Default : Yes

  47. Forced : No

  48. Text #1

  49. ID : 3

  50. Format : PGS

  51. Muxing mode : zlib

  52. Codec ID : S_HDMV/PGS

  53. Codec ID/Info : Picture based subtitle format used on BDs/HD-DVDs

  54. Language : English

  55. Default : Yes

  56. Forced : No

  57. Text #2

  58. ID : 4

  59. Format : PGS

  60. Muxing mode : zlib

  61. Codec ID : S_HDMV/PGS

  62. Codec ID/Info : Picture based subtitle format used on BDs/HD-DVDs

  63. Language : Chinese

  64. Default : No

  65. Forced : No

  66. Menu

  67. 00:00:00.000 : :Chapter 01

  68. 00:04:25.625 : :Chapter 02

  69. 00:08:35.957 : :Chapter 03

  70. 00:11:45.000 : :Chapter 04

  71. 00:17:55.707 : :Chapter 05

  72. 00:20:10.416 : :Chapter 06

  73. 00:26:29.875 : :Chapter 07

  74. 00:33:32.416 : :Chapter 08

  75. 00:39:36.875 : :Chapter 09

  76. 00:43:29.832 : :Chapter 10

  77. 00:59:59.541 : :Chapter 11

  78. 01:05:52.000 : :Chapter 12

  79. 01:07:12.750 : :Chapter 13

  80. 01:10:55.332 : :Chapter 14

  81. 01:14:04.207 : :Chapter 15

  82. 01:16:14.875 : :Chapter 16

  83. 01:30:34.290 : :Chapter 17

  84. 01:40:04.165 : :Chapter 18

  85. 01:41:12.000 : :Chapter 19

  86. 01:53:25.208 : :Chapter 20


复制代码



文件下载


除非特别注明,本文『空中撤离[中英字幕].Airlift.2016.BluRay.1080p.x265.10bit-MiniHD 4.44GB』来源于互联网机器人自动抓取,非本站原创。 浮游电影网不对本文拥有版权,如有侵犯,请联系邮箱:fuyouu#yandex.com[#换成@]投诉。我们会在15个工作日内删除。 但烦请转载时请标明出处:“本文转载于『浮游电影网』,原文地址:https://www.fuyouu.com/22044.html

评论吧骚年!

发表你的见解   

昵称*

E-mail*(建议输入,以便收到博主回复的提示邮件)

验证码*

您可以使用eMule或eMule Mod(Windows)、aMule(Win、Linux、Mac)等软件下载eD2k链接。。
eMule收藏集(.emulecollection)文件是您选中的所有链接的列表文件。eMule可以直接下载它们。
按住SHIFT键选择可以选中多个选择框。
可用文件名和大小选择器来选择文件。
文件名选择器帮您根据文件名称或后缀来选择文件。不分大小写。
符号使用:
和:空格( )、+
不包含:-
或:|
转义:一对英文引号("");
匹配开头:^
匹配结尾:$
例如:
选中所有名称中包含有“eMule”或“0.49c”字眼,但不包含有“exe”字眼的:emule|0.49c -exe
选中所有名称的开头是“eMule”,结尾是“0.49c”的:^emule 0.49c$
选中所有名称中带有“eMule 0.49c”的(必须是“eMule 0.49c”,中间没有别的字符,不能是“eMule fake 0.49c”),需要转义:"emule 0.49c"
大小选择器帮您根据文件大小选择文件。