当前位置: 首页 >> 海外电影 >> 正发生[中文字幕].AKA.Happening.2021.BluRay.1080p.DTS-HDMA.5.1.x265.10bit-CTRLHD 6.76GB >> 正文

正发生[中文字幕].AKA.Happening.2021.BluRay.1080p.DTS-HDMA.5.1.x265.10bit-CTRLHD 6.76GB

2022年05月11日 18:24:36     电影发布:来源于网络     电影分类:海外电影     评论(0)    

◎译 名 正发生 / Happening

◎片 名 L'événement

◎年 代 2021

◎产 地 法国

◎类 别 剧情

◎语 言 法语

◎上映日期 2021-09-06(威尼斯电影节) / 2021-11-24(法国)

◎IMDb链接 https://www.imdb.com/title/tt13880104/

◎豆瓣评分 7.8/10 (7333人评价)

◎豆瓣链接 https://movie.douban.com/subject/35318021/

◎片 长 100分钟

◎导 演 奥黛丽·迪万 Audrey Diwan (id:1348320)

◎编 剧 奥黛丽·迪万 Audrey Diwan (id:1348320)

玛西娅·罗马诺 Marcia Romano (id:1329031)

◎演 员 安娜玛丽亚·沃特鲁梅 Anamaria Vartolomei (id:1316380)

卡西·莫泰·克莱恩 Kacey Mottet Klein (id:1331232)

卢安娜·巴杰拉米 Luàna Bajrami (id:1428889)

露易丝·奥利-狄奎罗 Louise Orry-Diquéro (id:1400456)

路易丝·舍维约特 Louise Chevillotte (id:1381078)

皮奥·马麦 Pio Marma? (id:1311921)

桑德里娜·博内尔 Sandrine Bonnaire (id:1018278)

安娜·穆格拉利斯 Anna Mouglalis (id:1045023)

阿丽斯·德·朗克桑 Alice de Lencquesaing (id:1316091)

法布里齐奥·隆吉奥内 Fabrizio Rongione (id:1319699)

塞德里克·梅斯伯格 Cédric Meusburger (id:1437637)

Julien Frison Julien Frison (id:1237316)

Leonor Oberson (id:1467645)

Alice Girard (id:1467647)

◎简 介

改编自法国作家安妮·艾诺的自传作品,原著讲述1960年代还是学生的安妮,因堕胎所引发的心理和生理双重创伤。

◎获奖情况 (共7项)

第78届威尼斯电影节 (2021)

主竞赛单元 金狮奖

└──奥黛丽·迪万 (id:1348320)

费比西奖(国际影评人联盟奖) 竞赛单元费比西奖

└──奥黛丽·迪万 (id:1348320)

第75届英国电影学院奖 (2022)

电影奖 最佳导演(提名)

└──奥黛丽·迪万 (id:1348320)

第47届法国凯撒电影奖 (2022)

最佳影片(提名)

最佳导演(提名)

└──奥黛丽·迪万 (id:1348320)

最佳新人女演员

└──安娜玛丽亚·沃特鲁梅 (id:1316380)

最佳改编剧本(提名)

  1. ##### MediaInfo ######

  2. General

  3. Unique ID : 257754112568344371471050423792205955016 (0xC1E9A2E90AA925866C7AEDE9B185FFC8)

  4. Complete name : L'événement.AKA.Happening.2021.BluRay.1080p.DTS-HDMA.5.1.x265.10bit-CTRLHD.mkv

  5. Format : Matroska

  6. Format version : Version 4

  7. File size : 6.76 GiB

  8. Duration : 1 h 39 min

  9. Overall bit rate mode : Variable

  10. Overall bit rate : 9 743 kb/s

  11. Encoded date : UTC 2022-05-10 12:41:20

  12. Writing application : mkvmerge v64.0.0 ('Willows') 64-bit

  13. Writing library : libebml v1.4.2 + libmatroska v1.6.4

  14. Video

  15. ID : 1

  16. Format : HEVC

  17. Format/Info : High Efficiency Video Coding

  18. Format profile : Main [email protected]@High

  19. Codec ID : V_MPEGH/ISO/HEVC

  20. Duration : 1 h 39 min

  21. Bit rate : 6 235 kb/s

  22. Width : 1 472 pixels

  23. Height : 1 080 pixels

  24. Display aspect ratio : 4:3

  25. Frame rate mode : Constant

  26. Frame rate : 24.000 FPS

  27. Color space : YUV

  28. Chroma subsampling : 4:2:0

  29. Bit depth : 10 bits

  30. Bits/(Pixel*Frame) : 0.163

  31. Stream size : 4.33 GiB (64%)

  32. Writing library : x265 3.5+20-17839cc0d:[Windows][MSVC 1930][64 bit] 10bit

  33. Encoding settings : cpuid=533541111039 / frame-threads=4 / numa-pools=24 / wpp / no-pmode / no-pme / no-psnr / no-ssim / log-level=2 / input-csp=1 / input-res=1472x1080 / interlace=0 / total-frames=0 / level-idc=51 / high-tier=1 / uhd-bd=0 / ref=6 / no-allow-non-conformance / repeat-headers / annexb / no-aud / no-eob / no-eos / no-hrd / info / hash=0 / no-temporal-layers / no-open-gop / min-keyint=24 / keyint=250 / gop-lookahead=0 / bframes=8 / b-adapt=2 / b-pyramid / bframe-bias=0 / rc-lookahead=24 / lookahead-slices=6 / NTMzNTQ=uuDQuD2mJt9fsCf / scenecut=40 / no-hist-scenecut / radl=0 / no-splice / no-intra-refresh / ctu=64 / min-cu-size=8 / no-rect / no-amp / max-tu-size=32 / tu-inter-depth=1 / tu-intra-depth=1 / limit-tu=0 / rdoq-level=0 / dynamic-rd=0.00 / no-ssim-rd / signhide / no-tskip / nr-intra=0 / nr-inter=0 / no-constrained-intra / no-strong-intra-smoothing / max-merge=3 / limit-refs=1 / no-limit-modes / me=2 / subme=7 / merange=48 / temporal-mvp / no-frame-dup / no-hme / weightp / weightb / no-analyze-src-pics / deblock=0:0 / sao / no-sao-non-deblock / rd=4 / selective-sao=4 / early-skip / rskip / no-fast-intra / no-tskip-fast / no-cu-lossless / b-intra / no-splitrd-skip / rdpenalty=0 / psy-rd=2.00 / psy-rdoq=0.00 / no-rd-refine / no-lossless / cbqpoffs=0 / crqpoffs=0 / rc=crf / crf=18.0 / qcomp=0.60 / qpstep=4 / stats-write=0 / stats-read=0 / vbv-maxrate=160000 / vbv-bufsize=160000 / vbv-init=0.9 / min-vbv-fullness=50.0 / max-vbv-fullness=80.0 / crf-max=0.0 / crf-min=0.0 / ipratio=1.40 / pbratio=1.30 / aq-mode=3 / aq-strength=1.00 / cutree / zone-count=0 / no-strict-cbr / qg-size=32 / no-rc-grain / qpmax=69 / qpmin=0 / no-const-vbv / sar=0 / overscan=0 / videoformat=5 / range=0 / colorprim=2 / transfer=2 / colormatrix=2 / chromaloc=0 / display-window=0 / cll=0,0 / min-luma=0 / max-luma=1023 / log2-max-poc-lsb=8 / vui-timing-info / vui-hrd-info / slices=1 / no-opt-qp-pps / no-opt-ref-list-length-pps / no-multi-pass-opt-rps / scenecut-bias=0.05 / hist-threshold=0.03 / no-opt-cu-delta-qp / aq-motion / no-hdr10 / no-hdr10-opt / no-dhdr10-opt / no-idr-recovery-sei / analysis-reuse-level=0 / analysis-save-reuse-level=0 / analysis-load-reuse-level=0 / scale-factor=0 / refine-intra=0 / refine-inter=0 / refine-mv=1 / refine-ctu-distortion=0 / no-limit-sao / ctu-info=0 / no-lowpass-dct / refine-analysis-type=0 / copy-pic=1 / max-ausize-factor=1.0 / no-dynamic-refine / no-single-sei / no-hevc-aq / no-svt / no-field / qp-adaptation-range=1.00 / scenecut-aware-qp=0conformance-window-offsets / right=0 / bottom=0 / NTMzNTQ= / decoder-max-rate=0 / no-vbv-live-multi-pass

  34. Language : French

  35. Default : Yes

  36. Forced : No

  37. Audio

  38. ID : 2

  39. Format : DTS XLL

  40. Format/Info : Digital Theater Systems

  41. Commercial name : DTS-HD Master Audio

  42. Codec ID : A_DTS

  43. Duration : 1 h 39 min

  44. Bit rate mode : Variable

  45. Bit rate : 3 477 kb/s

  46. Channel(s) : 6 channels

  47. Channel layout : C L R Ls Rs LFE

  48. Sampling rate : 48.0 kHz

  49. Frame rate : 93.750 FPS (512 SPF)

  50. Bit depth : 24 bits

  51. Compression mode : Lossless

  52. Stream size : 2.41 GiB (36%)

  53. Language : French

  54. Default : Yes

  55. Forced : No

  56. Text #1

  57. ID : 3

  58. Format : PGS

  59. Muxing mode : zlib

  60. Codec ID : S_HDMV/PGS

  61. Codec ID/Info : Picture based subtitle format used on BDs/HD-DVDs

  62. Duration : 1 h 34 min

  63. Bit rate : 23.8 kb/s

  64. Count of elements : 1689

  65. Stream size : 16.1 MiB (0%)

  66. Language : Chinese

  67. Default : Yes

  68. Forced : No

  69. Text #2

  70. ID : 4

  71. Format : PGS

  72. Muxing mode : zlib

  73. Codec ID : S_HDMV/PGS

  74. Codec ID/Info : Picture based subtitle format used on BDs/HD-DVDs

  75. Duration : 1 h 34 min

  76. Bit rate : 24.3 kb/s

  77. Count of elements : 1689

  78. Stream size : 16.4 MiB (0%)

  79. Language : Chinese

  80. Default : Yes

  81. Forced : No

  82. Menu

  83. 00:00:00.000 : fr:Chapter 01

  84. 00:08:05.833 : fr:Chapter 02

  85. 00:19:17.000 : fr:Chapter 03

  86. 00:27:13.250 : fr:Chapter 04

  87. 00:35:43.500 : fr:Chapter 05

  88. 00:43:30.000 : fr:Chapter 06

  89. 00:50:38.042 : fr:Chapter 07

  90. 00:59:16.625 : fr:Chapter 08

  91. 01:05:25.208 : fr:Chapter 09

  92. 01:13:25.292 : fr:Chapter 10

  93. 01:23:13.833 : fr:Chapter 11

  94. 01:34:10.208 : fr:Chapter 12


复制代码



文件下载


除非特别注明,本文『正发生[中文字幕].AKA.Happening.2021.BluRay.1080p.DTS-HDMA.5.1.x265.10bit-CTRLHD 6.76GB』来源于互联网机器人自动抓取,非本站原创。 浮游电影网不对本文拥有版权,如有侵犯,请联系邮箱:fuyouu#yandex.com[#换成@]投诉。我们会在15个工作日内删除。 但烦请转载时请标明出处:“本文转载于『浮游电影网』,原文地址:https://www.fuyouu.com/22043.html

评论吧骚年!

发表你的见解   

昵称*

E-mail*(建议输入,以便收到博主回复的提示邮件)

验证码*

您可以使用eMule或eMule Mod(Windows)、aMule(Win、Linux、Mac)等软件下载eD2k链接。。
eMule收藏集(.emulecollection)文件是您选中的所有链接的列表文件。eMule可以直接下载它们。
按住SHIFT键选择可以选中多个选择框。
可用文件名和大小选择器来选择文件。
文件名选择器帮您根据文件名称或后缀来选择文件。不分大小写。
符号使用:
和:空格( )、+
不包含:-
或:|
转义:一对英文引号("");
匹配开头:^
匹配结尾:$
例如:
选中所有名称中包含有“eMule”或“0.49c”字眼,但不包含有“exe”字眼的:emule|0.49c -exe
选中所有名称的开头是“eMule”,结尾是“0.49c”的:^emule 0.49c$
选中所有名称中带有“eMule 0.49c”的(必须是“eMule 0.49c”,中间没有别的字符,不能是“eMule fake 0.49c”),需要转义:"emule 0.49c"
大小选择器帮您根据文件大小选择文件。