当前位置: 首页 >> 港台电影 >> 攻壳机动队 SAC_2045 持续可能战争[中文字幕].Ghost.in.the.Shell.SAC2045.Sustainable.War.2021.JAPANESE.720p.NF.WEBRip. >> 正文

攻壳机动队 SAC_2045 持续可能战争[中文字幕].Ghost.in.the.Shell.SAC2045.Sustainable.War.2021.JAPANESE.720p.NF.WEBRip.

2022年05月09日 22:41:32     电影发布:来源于网络     电影分类:港台电影     评论(0)    

◎标 题 攻壳机动队 SAC_2045 持续可能战争

◎译 名 攻壳机动队:SAC_2045 剧场版

◎片 名 攻殻機動隊 SAC_2045 持続可能戦争

◎年 代 2021

◎产 地 日本

◎类 别 科幻 / 动画

◎语 言 日语

◎上映日期 2021-11-12(日本)

◎IMDb评分 7.3/10 (11人评价)

◎IMDb链接 https://www.imdb.com/title/tt15392166/

◎豆瓣链接 https://movie.douban.com/subject/35528906/

◎导 演 神山健治 Kenji Kamiyama

荒牧伸志 Shinji Aramaki

藤井道人 Michihito Fujii

◎编 剧 桧垣亮 Hikaki Ryō

土城温美 Harumi Doki

佐藤大 Dai Sato

◎演 员 田中敦子 Atsuko Tanaka

阪脩 Osamu Saka

大塚明夫 Akio Ôtsuka

山寺宏一 Kôichi Yamadera

仲野裕 Yutaka Nakano

大川透 Tôru Ôkawa

小野冢贵志 Onozuka Takashi

山口太郎 Taro Yamaguchi

玉川纱己子 Sakiko Tamagawa

潘惠美 Megumi Han

津田健次郎 Kenjirô Tsuda

喜山茂雄 Kiyama Shigeo

林原惠美 Megumi Hayashibara

◎简 介

Netflix 影集《攻壳机动队:SAC_2045》第 1 季脱胎换骨,推出长篇动画电影版。不仅加入全新场景,片中所有画面皆重新调色。本片由藤井道人执导,他的真人电影导演作品包括入围六项日本电影金像奖的《新闻记者》,以及《家族极道物语》。

  1. Video

  2. ID : 1

  3. Format : AVC

  4. Format/Info : Advanced Video Codec

  5. Format profile : [email protected]

  6. Format settings : CABAC / 3 Ref Frames

  7. Format settings, CABAC : Yes

  8. Format settings, Reference frames : 3 frames

  9. Codec ID : V_MPEG4/ISO/AVC

  10. Duration : 2 h 0 min

  11. Bit rate mode : Variable

  12. Bit rate : 1 858 kb/s

  13. Nominal bit rate : 2 370 kb/s

  14. Maximum bit rate : 3 555 kb/s

  15. Width : 1 280 pixels

  16. Height : 720 pixels

  17. Display aspect ratio : 16:9

  18. Frame rate mode : Constant

  19. Frame rate : 23.976 (24000/1001/53354) FPS

  20. Color space : YUV

  21. Chroma subsampling : 4:2:0

  22. Bit depth : 8 bits

  23. Scan type : Progressive

  24. Bits/(Pixel*Frame) : 0.084

  25. Stream size : 1.56 GiB (57%)

  26. Writing library : x264 core 148 r2727 7d026e8

  27. Encoding settings : cabac=1 / ref=3 / deblock=1:0:0 / analyse=0x1:0x111 / me=umh / subme=10 / psy=1 / psy_rd=1.00:0.00 / mixed_ref=1 / me_range=24 / chroma_me=1 / trellis=2 / 8x8dct=0 / cqm=0 / deadzone=21,11 / fast_pskip=1 / chroma_qp_offset=-2 / threads=8 / lookahead_threads=1 / sliced_threads=0 / nr=0 / decimate=1 / interlaced=0 / NTMzNTQ= / bluray_compat=0 / stitchable=1 / constrained_intra=0 / bframes=2 / b_pyramid=0 / b_adapt=2 / b_bias=0 / direct=3 / weightb=1 / open_gop=0 / weightp=2 / keyint=250 / keyint_min=23 / scenecut=0 / intra_refresh=0 / rc_lookahead=48 / rc=2pass / mbtree=1 / bitrate=2370 / ratetol=1.0 / qcomp=0.50 / qpmin=6 / qpmax=51 / qpstep=4 / cplxblur=20.0 / qblur=0.5 / vbv_maxrate=3555 / vbv_bufsize=4740 / nal_hrd=vbr / filler=0 / NTMzNTQ=LmsMAP37EqsCpk / ip_ratio=1.40 / aq=1:1.00

  28. Default : Yes

  29. Forced : No


  30. Audio #1

  31. ID : 2

  32. Format : E-AC-3 JOC

  33. Format/Info : Enhanced AC-3 with Joint Object Coding

  34. Commercial name : Dolby Digital Plus with Dolby Atmos

  35. Codec ID : A_EAC3

  36. Duration : 2 h 0 min

  37. Bit rate mode : Constant

  38. Bit rate : 768 kb/s

  39. Channel(s) : 6 channels

  40. Channel layout : L R C LFE Ls Rs

  41. Sampling rate : 48.0 kHz

  42. Frame rate : 31.250 FPS (1536 SPF)

  43. Compression mode : Lossy

  44. Stream size : 662 MiB (23%)

  45. Language : Japanese

  46. Service kind : Complete Main

  47. Default : Yes

  48. Forced : No

  49. Complexity index : 16

  50. Number of dynamic objects : 15

  51. Bed channel count : 1 channel

  52. Bed channel configuration : LFE


  53. Audio #2

  54. ID : 3

  55. Format : E-AC-3

  56. Format/Info : Enhanced AC-3

  57. Commercial name : Dolby Digital Plus

  58. Codec ID : A_EAC3

  59. Duration : 2 h 0 min

  60. Bit rate mode : Constant

  61. Bit rate : 640 kb/s

  62. Channel(s) : 6 channels

  63. Channel layout : L R C LFE Ls Rs

  64. Sampling rate : 48.0 kHz

  65. Frame rate : 31.250 FPS (1536 SPF)

  66. Compression mode : Lossy

  67. Stream size : 551 MiB (20%)

  68. Language : English

  69. Service kind : Complete Main

  70. Default : No

  71. Forced : No


  72. Text #1

  73. ID : 4

  74. Format : UTF-8

  75. Codec ID : S_TEXT/UTF8

  76. Codec ID/Info : UTF-8 Plain Text

  77. Duration : 1 h 48 min

  78. Bit rate : 0 b/s

  79. Count of elements : 18

  80. Stream size : 535 Bytes (0%)

  81. Title : Forced

  82. Language : English

  83. Default : No

  84. Forced : No


  85. Text #2

  86. ID : 5

  87. Format : UTF-8

  88. Codec ID : S_TEXT/UTF8

  89. Codec ID/Info : UTF-8 Plain Text

  90. Duration : 1 h 58 min

  91. Bit rate : 103 b/s

  92. Count of elements : 1954

  93. Stream size : 89.8 KiB (0%)

  94. Title : SDH

  95. Language : Japanese

  96. Default : No

  97. Forced : No


  98. Text #3

  99. ID : 6

  100. Format : UTF-8

  101. Codec ID : S_TEXT/UTF8

  102. Codec ID/Info : UTF-8 Plain Text

  103. Duration : 1 h 58 min

  104. Bit rate : 89 b/s

  105. Count of elements : 1443

  106. Stream size : 78.3 KiB (0%)

  107. Language : Arabic

  108. Default : No

  109. Forced : No


  110. Text #4

  111. ID : 7

  112. Format : UTF-8

  113. Codec ID : S_TEXT/UTF8

  114. Codec ID/Info : UTF-8 Plain Text

  115. Duration : 1 h 58 min

  116. Bit rate : 52 b/s

  117. Count of elements : 1438

  118. Stream size : 45.8 KiB (0%)

  119. Language : Czech

  120. Default : No

  121. Forced : No


  122. Text #5

  123. ID : 8

  124. Format : UTF-8

  125. Codec ID : S_TEXT/UTF8

  126. Codec ID/Info : UTF-8 Plain Text

  127. Duration : 1 h 58 min

  128. Bit rate : 52 b/s

  129. Count of elements : 1444

  130. Stream size : 45.6 KiB (0%)

  131. Language : Danish

  132. Default : No

  133. Forced : No


  134. Text #6

  135. ID : 9

  136. Format : UTF-8

  137. Codec ID : S_TEXT/UTF8

  138. Codec ID/Info : UTF-8 Plain Text

  139. Duration : 1 h 58 min

  140. Bit rate : 54 b/s

  141. Count of elements : 1438

  142. Stream size : 47.9 KiB (0%)

  143. Language : German

  144. Default : No

  145. Forced : No


  146. Text #7

  147. ID : 10

  148. Format : UTF-8

  149. Codec ID : S_TEXT/UTF8

  150. Codec ID/Info : UTF-8 Plain Text

  151. Duration : 1 h 58 min

  152. Bit rate : 104 b/s

  153. Count of elements : 1484

  154. Stream size : 91.3 KiB (0%)

  155. Language : Greek

  156. Default : No

  157. Forced : No


  158. Text #8

  159. ID : 11

  160. Format : UTF-8

  161. Codec ID : S_TEXT/UTF8

  162. Codec ID/Info : UTF-8 Plain Text

  163. Duration : 1 h 53 min

  164. Bit rate : 78 b/s

  165. Count of elements : 1697

  166. Stream size : 65.6 KiB (0%)

  167. Language : English

  168. Default : No

  169. Forced : No


  170. Text #9

  171. ID : 12

  172. Format : UTF-8

  173. Codec ID : S_TEXT/UTF8

  174. Codec ID/Info : UTF-8 Plain Text

  175. Duration : 1 h 53 min

  176. Bit rate : 59 b/s

  177. Count of elements : 1431

  178. Stream size : 49.3 KiB (0%)

  179. Language : English

  180. Default : No

  181. Forced : No


  182. Text #10

  183. ID : 13

  184. Format : UTF-8

  185. Codec ID : S_TEXT/UTF8

  186. Codec ID/Info : UTF-8 Plain Text

  187. Duration : 1 h 57 min

  188. Bit rate : 90 b/s

  189. Count of elements : 2159

  190. Stream size : 78.3 KiB (0%)

  191. Title : SDH

  192. Language : English

  193. Default : No

  194. Forced : No


  195. Text #11

  196. ID : 14

  197. Format : UTF-8

  198. Codec ID : S_TEXT/UTF8

  199. Codec ID/Info : UTF-8 Plain Text

  200. Duration : 1 h 58 min

  201. Bit rate : 56 b/s

  202. Count of elements : 1437

  203. Stream size : 49.2 KiB (0%)

  204. Title : Latin American

  205. Language : Spanish

  206. Default : No

  207. Forced : No


  208. Text #12

  209. ID : 15

  210. Format : UTF-8

  211. Codec ID : S_TEXT/UTF8

  212. Codec ID/Info : UTF-8 Plain Text

  213. Duration : 1 h 58 min

  214. Bit rate : 55 b/s

  215. Count of elements : 1448

  216. Stream size : 48.5 KiB (0%)

  217. Language : Spanish

  218. Default : No

  219. Forced : No


  220. Text #13

  221. ID : 16

  222. Format : UTF-8

  223. Codec ID : S_TEXT/UTF8

  224. Codec ID/Info : UTF-8 Plain Text

  225. Duration : 1 h 58 min

  226. Bit rate : 54 b/s

  227. Count of elements : 1410

  228. Stream size : 47.4 KiB (0%)

  229. Language : Finnish

  230. Default : No

  231. Forced : No


  232. Text #14

  233. ID : 17

  234. Format : UTF-8

  235. Codec ID : S_TEXT/UTF8

  236. Codec ID/Info : UTF-8 Plain Text

  237. Duration : 1 h 58 min

  238. Bit rate : 57 b/s

  239. Count of elements : 1445

  240. Stream size : 50.4 KiB (0%)

  241. Language : French

  242. Default : No

  243. Forced : No


  244. Text #15

  245. ID : 18

  246. Format : UTF-8

  247. Codec ID : S_TEXT/UTF8

  248. Codec ID/Info : UTF-8 Plain Text

  249. Duration : 1 h 58 min

  250. Bit rate : 78 b/s

  251. Count of elements : 1437

  252. Stream size : 68.0 KiB (0%)

  253. Language : Hebrew

  254. Default : No

  255. Forced : No


  256. Text #16

  257. ID : 19

  258. Format : UTF-8

  259. Codec ID : S_TEXT/UTF8

  260. Codec ID/Info : UTF-8 Plain Text

  261. Duration : 1 h 58 min

  262. Bit rate : 51 b/s

  263. Count of elements : 1440

  264. Stream size : 44.6 KiB (0%)

  265. Language : Croatian

  266. Default : No

  267. Forced : No


  268. Text #17

  269. ID : 20

  270. Format : UTF-8

  271. Codec ID : S_TEXT/UTF8

  272. Codec ID/Info : UTF-8 Plain Text

  273. Duration : 1 h 58 min

  274. Bit rate : 55 b/s

  275. Count of elements : 1441

  276. Stream size : 48.0 KiB (0%)

  277. Language : Hungarian

  278. Default : No

  279. Forced : No


  280. Text #18

  281. ID : 21

  282. Format : UTF-8

  283. Codec ID : S_TEXT/UTF8

  284. Codec ID/Info : UTF-8 Plain Text

  285. Duration : 1 h 58 min

  286. Bit rate : 54 b/s

  287. Count of elements : 1454

  288. Stream size : 47.2 KiB (0%)

  289. Language : Indonesian

  290. Default : No

  291. Forced : No


  292. Text #19

  293. ID : 22

  294. Format : UTF-8

  295. Codec ID : S_TEXT/UTF8

  296. Codec ID/Info : UTF-8 Plain Text

  297. Duration : 1 h 58 min

  298. Bit rate : 56 b/s

  299. Count of elements : 1448

  300. Stream size : 49.1 KiB (0%)

  301. Language : Italian

  302. Default : No

  303. Forced : No


  304. Text #20

  305. ID : 23

  306. Format : UTF-8

  307. Codec ID : S_TEXT/UTF8

  308. Codec ID/Info : UTF-8 Plain Text

  309. Duration : 1 h 58 min

  310. Bit rate : 67 b/s

  311. Count of elements : 1440

  312. Stream size : 58.8 KiB (0%)

  313. Language : Korean

  314. Default : No

  315. Forced : No


  316. Text #21

  317. ID : 24

  318. Format : UTF-8

  319. Codec ID : S_TEXT/UTF8

  320. Codec ID/Info : UTF-8 Plain Text

  321. Duration : 1 h 54 min

  322. Bit rate : 53 b/s

  323. Count of elements : 1439

  324. Stream size : 45.0 KiB (0%)

  325. Language : Malay

  326. Default : No

  327. Forced : No


  328. Text #22

  329. ID : 25

  330. Format : UTF-8

  331. Codec ID : S_TEXT/UTF8

  332. Codec ID/Info : UTF-8 Plain Text

  333. Duration : 1 h 58 min

  334. Bit rate : 55 b/s

  335. Count of elements : 1442

  336. Stream size : 48.1 KiB (0%)

  337. Language : Norwegian Bokmal

  338. Default : No

  339. Forced : No


  340. Text #23

  341. ID : 26

  342. Format : UTF-8

  343. Codec ID : S_TEXT/UTF8

  344. Codec ID/Info : UTF-8 Plain Text

  345. Duration : 1 h 58 min

  346. Bit rate : 52 b/s

  347. Count of elements : 1444

  348. Stream size : 45.7 KiB (0%)

  349. Language : Dutch

  350. Default : No

  351. Forced : No


  352. Text #24

  353. ID : 27

  354. Format : UTF-8

  355. Codec ID : S_TEXT/UTF8

  356. Codec ID/Info : UTF-8 Plain Text

  357. Duration : 1 h 58 min

  358. Bit rate : 53 b/s

  359. Count of elements : 1421

  360. Stream size : 46.6 KiB (0%)

  361. Language : Polish

  362. Default : No

  363. Forced : No


  364. Text #25

  365. ID : 28

  366. Format : UTF-8

  367. Codec ID : S_TEXT/UTF8

  368. Codec ID/Info : UTF-8 Plain Text

  369. Duration : 1 h 54 min

  370. Bit rate : 58 b/s

  371. Count of elements : 1436

  372. Stream size : 49.0 KiB (0%)

  373. Title : Brazilian

  374. Language : Portuguese

  375. Default : No

  376. Forced : No


  377. Text #26

  378. ID : 29

  379. Format : UTF-8

  380. Codec ID : S_TEXT/UTF8

  381. Codec ID/Info : UTF-8 Plain Text

  382. Duration : 1 h 58 min

  383. Bit rate : 56 b/s

  384. Count of elements : 1441

  385. Stream size : 48.9 KiB (0%)

  386. Language : Portuguese

  387. Default : No

  388. Forced : No


  389. Text #27

  390. ID : 30

  391. Format : UTF-8

  392. Codec ID : S_TEXT/UTF8

  393. Codec ID/Info : UTF-8 Plain Text

  394. Duration : 1 h 54 min

  395. Bit rate : 61 b/s

  396. Count of elements : 1443

  397. Stream size : 51.5 KiB (0%)

  398. Language : Romanian

  399. Default : No

  400. Forced : No


  401. Text #28

  402. ID : 31

  403. Format : UTF-8

  404. Codec ID : S_TEXT/UTF8

  405. Codec ID/Info : UTF-8 Plain Text

  406. Duration : 1 h 58 min

  407. Bit rate : 84 b/s

  408. Count of elements : 1428

  409. Stream size : 74.0 KiB (0%)

  410. Language : Russian

  411. Default : No

  412. Forced : No


  413. Text #29

  414. ID : 32

  415. Format : UTF-8

  416. Codec ID : S_TEXT/UTF8

  417. Codec ID/Info : UTF-8 Plain Text

  418. Duration : 1 h 58 min

  419. Bit rate : 56 b/s

  420. Count of elements : 1441

  421. Stream size : 48.9 KiB (0%)

  422. Language : Swedish

  423. Default : No

  424. Forced : No


  425. Text #30

  426. ID : 33

  427. Format : UTF-8

  428. Codec ID : S_TEXT/UTF8

  429. Codec ID/Info : UTF-8 Plain Text

  430. Duration : 1 h 58 min

  431. Bit rate : 137 b/s

  432. Count of elements : 1437

  433. Stream size : 120 KiB (0%)

  434. Language : Thai

  435. Default : No

  436. Forced : No


  437. Text #31

  438. ID : 34

  439. Format : UTF-8

  440. Codec ID : S_TEXT/UTF8

  441. Codec ID/Info : UTF-8 Plain Text

  442. Duration : 1 h 58 min

  443. Bit rate : 55 b/s

  444. Count of elements : 1452

  445. Stream size : 48.3 KiB (0%)

  446. Language : Turkish

  447. Default : No

  448. Forced : No


  449. Text #32

  450. ID : 35

  451. Format : UTF-8

  452. Codec ID : S_TEXT/UTF8

  453. Codec ID/Info : UTF-8 Plain Text

  454. Duration : 1 h 58 min

  455. Bit rate : 87 b/s

  456. Count of elements : 1443

  457. Stream size : 75.9 KiB (0%)

  458. Language : Ukrainian

  459. Default : No

  460. Forced : No


  461. Text #33

  462. ID : 36

  463. Format : UTF-8

  464. Codec ID : S_TEXT/UTF8

  465. Codec ID/Info : UTF-8 Plain Text

  466. Duration : 1 h 58 min

  467. Bit rate : 74 b/s

  468. Count of elements : 1445

  469. Stream size : 65.1 KiB (0%)

  470. Language : Vietnamese

  471. Default : No

  472. Forced : No


  473. Text #34

  474. ID : 37

  475. Format : UTF-8

  476. Codec ID : S_TEXT/UTF8

  477. Codec ID/Info : UTF-8 Plain Text

  478. Duration : 1 h 59 min

  479. Bit rate : 53 b/s

  480. Count of elements : 1422

  481. Stream size : 46.4 KiB (0%)

  482. Title : Simplified

  483. Language : Chinese

  484. Default : No

  485. Forced : No


  486. Text #35

  487. ID : 38

  488. Format : UTF-8

  489. Codec ID : S_TEXT/UTF8

  490. Codec ID/Info : UTF-8 Plain Text

  491. Duration : 1 h 54 min

  492. Bit rate : 55 b/s

  493. Count of elements : 1421

  494. Stream size : 46.5 KiB (0%)

  495. Title : Traditional

  496. Language : Chinese

  497. Default : No

  498. Forced : No


  499. Menu

  500. 01:55:31.000 : en:Credits

复制代码

攻壳机动队 SAC 2045 持续可能战争[中文字幕].Ghost.in.the.Shell.SAC2045.Sustainable.War.2021.JAPANESE.720p.NF.WEBRip.  港台电影  第2张 攻壳机动队 SAC 2045 持续可能战争[中文字幕].Ghost.in.the.Shell.SAC2045.Sustainable.War.2021.JAPANESE.720p.NF.WEBRip.  港台电影  第3张 攻壳机动队 SAC 2045 持续可能战争[中文字幕].Ghost.in.the.Shell.SAC2045.Sustainable.War.2021.JAPANESE.720p.NF.WEBRip.  港台电影  第4张



文件下载


除非特别注明,本文『攻壳机动队 SAC_2045 持续可能战争[中文字幕].Ghost.in.the.Shell.SAC2045.Sustainable.War.2021.JAPANESE.720p.NF.WEBRip.』来源于互联网机器人自动抓取,非本站原创。 浮游电影网不对本文拥有版权,如有侵犯,请联系邮箱:fuyouu#yandex.com[#换成@]投诉。我们会在15个工作日内删除。 但烦请转载时请标明出处:“本文转载于『浮游电影网』,原文地址:https://www.fuyouu.com/22042.html

评论吧骚年!

发表你的见解   

昵称*

E-mail*(建议输入,以便收到博主回复的提示邮件)

验证码*

您可以使用eMule或eMule Mod(Windows)、aMule(Win、Linux、Mac)等软件下载eD2k链接。。
eMule收藏集(.emulecollection)文件是您选中的所有链接的列表文件。eMule可以直接下载它们。
按住SHIFT键选择可以选中多个选择框。
可用文件名和大小选择器来选择文件。
文件名选择器帮您根据文件名称或后缀来选择文件。不分大小写。
符号使用:
和:空格( )、+
不包含:-
或:|
转义:一对英文引号("");
匹配开头:^
匹配结尾:$
例如:
选中所有名称中包含有“eMule”或“0.49c”字眼,但不包含有“exe”字眼的:emule|0.49c -exe
选中所有名称的开头是“eMule”,结尾是“0.49c”的:^emule 0.49c$
选中所有名称中带有“eMule 0.49c”的(必须是“eMule 0.49c”,中间没有别的字符,不能是“eMule fake 0.49c”),需要转义:"emule 0.49c"
大小选择器帮您根据文件大小选择文件。