当前位置: 首页 >> 海外电影 >> 漫漫寻子路[中文字幕].Father.2020.2160p.WEB-DL.H265.DDP5.1-HDBWEB 12.93GB >> 正文

漫漫寻子路[中文字幕].Father.2020.2160p.WEB-DL.H265.DDP5.1-HDBWEB 12.93GB

2022年05月09日 22:40:40     电影发布:来源于网络     电影分类:海外电影     评论(0)    

◎译 名 漫漫寻子路 / 父亲 / 一个父亲的寻子之路 / Father

◎片 名 Otac

◎年 代 2020

◎产 地 塞尔维亚 / 法国 / 德国 / 斯洛文尼亚 / 克罗地亚 / 波黑

◎类 别 剧情

◎语 言 塞尔维亚语

◎上映日期 2021-11-02(中国大陆) / 2020-02-22(柏林电影节) / 2020-03-05(塞尔维亚)

◎IMDb链接 https://www.imdb.com/title/tt9048802/

◎豆瓣评分 7.8/10 (4975人评价)

◎豆瓣链接 https://movie.douban.com/subject/33406877/

◎片 长 119分钟

◎导 演 斯尔丹·戈卢博维奇 Srdan Golubovi? (id:1050570)

◎编 剧 斯尔丹·戈卢博维奇 Srdan Golubovi? (id:1050570)

奥涅金·斯维利契奇 Ognjen Svilicic (id:1298700)

◎演 员 戈兰·波格丹 Goran Bogdan (id:1371748)

波利斯·伊萨科维奇 Boris Isakovi? (id:1338037)

纳达·萨金 Nada ?argin (id:1223692)

米利卡·詹尼夫斯基 Milica Janevski (id:1441830)

穆哈拉姆·哈姆齐奇 Muharem Hamzic (id:1441832)

阿吉拉·桑蒂奇 Ajla Santic (id:1441833)

瓦希德·赞科维奇 Vahid Dzankovic (id:1441834)

米兰·马里奇 Milan Mari? (id:1405827)

尼古拉·拉科切维奇 Nikola Rako?evi? (id:1174685)

伊兹丁·巴乔维奇 Izudin Bajrovic (id:1056815)

Danijela Vranjes Danijela Vranjes (id:1162330)

卢博米尔,班多维奇 Ljubomir Bandovic (id:1064929)

丹尼斯·塔诺维奇 Danis Tanovic (id:1032391)

◎简 介

在他的妻子试图自杀后,身为临时工的尼古拉的两个孩子也被迫离开他,并交由养父母抚养。一开始,这只是一项临时安排,然而在对尼古拉的住房条件进行评估后,塞尔维亚小村庄的社会福利办公室主任认为尼古拉太穷,无法为他的子女提供良好的生活环境。寡言少语的尼古拉决定向贝尔格莱德社会事务部提出申诉,并且决定步行300公里到达首都,向当局展现他愿意为他的孩子们付出巨大努力的决心。导演戈卢博维奇通过展现真实、动人的影像告诉观众这个不平等的故事。主人公尼古拉不仅用自己平和且坚韧的性格丈量了这个国家,也探索了是非之间的界限。这位顽强的父亲决心不向绝望屈服,踏上了一段重新定义“英雄”一词的英雄之旅。

◎获奖情况 (共2项)

第33届欧洲电影奖 (2020)

最佳男主角(提名)

└──戈兰·波格丹 (id:1371748)

第3届海南岛国际电影节 (2020)

金椰奖 最佳影片奖(提名)

└──斯尔丹·戈卢博维奇 (id:1050570)

  1. ##### MediaInfo ######

  2. General

  3. Unique ID : 12796043176242172056887469642905458159 (0x9A06DA3408AFD60183605E0D1B295EF)

  4. Complete name : 漫漫寻子路.Father.2020.2160p.WEB-DL.H265.DDP5.1-HDBWEB.mkv

  5. Format : Matroska

  6. Format version : Version 4

  7. File size : 12.9 GiB

  8. Duration : 1 h 59 min

  9. Overall bit rate : 15.5 Mb/s

  10. Encoded date : UTC 2022-05-09 05:48:03

  11. Writing application : mkvmerge v56.1.0 ('My Friend') 64-bit

  12. Writing library : libebml v1.4.2 + libmatroska v1.6.4

  13. Video

  14. ID : 1

  15. Format : HEVC

  16. Format/Info : High Efficiency Video Coding

  17. Format profile : [email protected]@Main

  18. Codec ID : V_MPEGH/ISO/HEVC

  19. Duration : 1 h 59 min

  20. Bit rate : 15.3 Mb/s

  21. Width : 3 840 pixels

  22. Height : 1 612 pixels

  23. Display aspect ratio : 2.40:1

  24. Frame rate mode : Constant

  25. Frame rate : 24.000 FPS

  26. Color space : YUV

  27. Chroma subsampling : 4:2:0

  28. Bit depth : 8 bits

  29. Bits/(Pixel*Frame) : 0.103

  30. Stream size : 12.7 GiB (98%)

  31. Default : Yes

  32. Forced : No

  33. Color range : Limited

  34. Color primaries : BT.709

  35. Transfer characteristics : BT.709

  36. Matrix coefficients : BT.709

  37. Audio

  38. ID : 2

  39. Format : E-AC-3

  40. Format/Info : Enhanced AC-3

  41. Commercial name : Dolby Digital Plus

  42. Codec ID : A_EAC3

  43. Duration : 1 h 59 min

  44. Bit rate mode : Constant

  45. Bit rate : 256 kb/s

  46. Channel(s) : 6 channels

  47. Channel layout : L R C LFE Ls Rs

  48. Sampling rate : 48.0 kHz

  49. Frame rate : 31.250 FPS (1536 SPF)

  50. Compression mode : Lossy

  51. Stream size : 218 MiB (2%)

  52. Service kind : Complete Main

  53. Default : Yes

  54. Forced : No


复制代码



文件下载


除非特别注明,本文『漫漫寻子路[中文字幕].Father.2020.2160p.WEB-DL.H265.DDP5.1-HDBWEB 12.93GB』来源于互联网机器人自动抓取,非本站原创。 浮游电影网不对本文拥有版权,如有侵犯,请联系邮箱:fuyouu#yandex.com[#换成@]投诉。我们会在15个工作日内删除。 但烦请转载时请标明出处:“本文转载于『浮游电影网』,原文地址:https://www.fuyouu.com/22041.html

评论吧骚年!

发表你的见解   

昵称*

E-mail*(建议输入,以便收到博主回复的提示邮件)

验证码*

您可以使用eMule或eMule Mod(Windows)、aMule(Win、Linux、Mac)等软件下载eD2k链接。。
eMule收藏集(.emulecollection)文件是您选中的所有链接的列表文件。eMule可以直接下载它们。
按住SHIFT键选择可以选中多个选择框。
可用文件名和大小选择器来选择文件。
文件名选择器帮您根据文件名称或后缀来选择文件。不分大小写。
符号使用:
和:空格( )、+
不包含:-
或:|
转义:一对英文引号("");
匹配开头:^
匹配结尾:$
例如:
选中所有名称中包含有“eMule”或“0.49c”字眼,但不包含有“exe”字眼的:emule|0.49c -exe
选中所有名称的开头是“eMule”,结尾是“0.49c”的:^emule 0.49c$
选中所有名称中带有“eMule 0.49c”的(必须是“eMule 0.49c”,中间没有别的字符,不能是“eMule fake 0.49c”),需要转义:"emule 0.49c"
大小选择器帮您根据文件大小选择文件。