当前位置: 首页 >> 国产电影 >> 桃花缘起[国语配音/中文字幕].Peach.Blossom.Origin.2022.2160p.WEB-DL.H265.AAC-HDBWEB 1.58GB >> 正文

桃花缘起[国语配音/中文字幕].Peach.Blossom.Origin.2022.2160p.WEB-DL.H265.AAC-HDBWEB 1.58GB

2022年05月09日 22:39:53     电影发布:来源于网络     电影分类:国产电影     评论(0)    

◎译 名 桃花缘起 / 无忧桃花源

◎年 代 2022

◎产 地 中国大陆

◎类 别 剧情 / 爱情 / 奇幻 / 古装

◎语 言 汉语普通话

◎上映日期 2022-05-05(中国大陆网络)

◎IMDb链接 https://www.imdb.com/title//

◎豆瓣链接 https://movie.douban.com/subject/34968936/

◎片 长 77分钟

◎导 演 张博维 Anthony Zhang (id:1386497)

◎演 员 魏哲鸣 Zheming Wei (id:1385466)

王歆霆 Xinting Wang (id:1385192)

谢闻轩 Wenxuan Xie (id:1318531)

赵子络 Ziluo Zhao (id:1374309)

简远信 Yuanxin Jian (id:1322796)

曾乙同 Yitong Zeng (id:1421398)

◎简 介

古魔族战败身锁炼狱,魔神为返人间,派人类首领范一航前往圣地夺取舆图,两军交战之际一航认出桃源圣女无忧竟是自己苦苦追寻的妻子,可发妻拒不相认还以刀剑相向。一航爱妻情深,屡次触怒魔族维护无忧,最终无忧是否能重拾爱的记忆?两人会在两族对抗中关系走向会如何?一场考验人性爱情的虐恋即将到来。

  1. ##### MediaInfo ######

  2. General

  3. Complete name : 桃花缘起.Peach.Blossom.Origin.2022.2160p.WEB-DL.H265.AAC-HDBWEB.mp4

  4. Format : MPEG-4

  5. Format profile : Base Media

  6. Codec ID : isom (isom/iso2/mp41)

  7. File size : 1.58 GiB

  8. Duration : 1 h 16 min

  9. Overall bit rate mode : Variable

  10. Overall bit rate : 2 949 kb/s

  11. Writing application : Lavf58.17.103

  12. Video

  13. ID : 1

  14. Format : HEVC

  15. Format/Info : High Efficiency Video Coding

  16. Format profile : [email protected]@Main

  17. Codec ID : hev1

  18. Codec ID/Info : High Efficiency Video Coding

  19. Duration : 1 h 16 min

  20. Bit rate : 2 817 kb/s

  21. Width : 3 840 pixels

  22. Height : 1 632 pixels

  23. Display aspect ratio : 2.35:1

  24. Frame rate mode : Variable

  25. Frame rate : 25.000 FPS

  26. Minimum frame rate : 24.993 FPS

  27. Maximum frame rate : 25.007 FPS

  28. Color space : YUV

  29. Chroma subsampling : 4:2:0

  30. Bit depth : 8 bits

  31. Bits/(Pixel*Frame) : 0.018

  32. Stream size : 1.51 GiB (96%)

  33. Color range : Limited

  34. Color primaries : BT.709

  35. Matrix coefficients : BT.709

  36. Codec configuration box : hvcC

  37. Audio

  38. ID : 2

  39. Format : AAC LC

  40. Format/Info : Advanced Audio Codec Low Complexity

  41. Codec ID : mp4a-40-2

  42. Duration : 1 h 16 min

  43. Bit rate mode : Variable

  44. Bit rate : 125 kb/s

  45. Maximum bit rate : 128 kb/s

  46. Channel(s) : 2 channels

  47. Channel layout : L R

  48. Sampling rate : 48.0 kHz

  49. Frame rate : 46.875 FPS (1024 SPF)

  50. Compression mode : Lossy

  51. Stream size : 68.6 MiB (4%)

  52. Default : Yes

  53. Alternate group : 1


复制代码



文件下载


除非特别注明,本文『桃花缘起[国语配音/中文字幕].Peach.Blossom.Origin.2022.2160p.WEB-DL.H265.AAC-HDBWEB 1.58GB』来源于互联网机器人自动抓取,非本站原创。 浮游电影网不对本文拥有版权,如有侵犯,请联系邮箱:fuyouu#yandex.com[#换成@]投诉。我们会在15个工作日内删除。 但烦请转载时请标明出处:“本文转载于『浮游电影网』,原文地址:https://www.fuyouu.com/22040.html

评论吧骚年!

发表你的见解   

昵称*

E-mail*(建议输入,以便收到博主回复的提示邮件)

验证码*

您可以使用eMule或eMule Mod(Windows)、aMule(Win、Linux、Mac)等软件下载eD2k链接。。
eMule收藏集(.emulecollection)文件是您选中的所有链接的列表文件。eMule可以直接下载它们。
按住SHIFT键选择可以选中多个选择框。
可用文件名和大小选择器来选择文件。
文件名选择器帮您根据文件名称或后缀来选择文件。不分大小写。
符号使用:
和:空格( )、+
不包含:-
或:|
转义:一对英文引号("");
匹配开头:^
匹配结尾:$
例如:
选中所有名称中包含有“eMule”或“0.49c”字眼,但不包含有“exe”字眼的:emule|0.49c -exe
选中所有名称的开头是“eMule”,结尾是“0.49c”的:^emule 0.49c$
选中所有名称中带有“eMule 0.49c”的(必须是“eMule 0.49c”,中间没有别的字符,不能是“eMule fake 0.49c”),需要转义:"emule 0.49c"
大小选择器帮您根据文件大小选择文件。