当前位置: 首页 >> 国产电影 >> 入魂:津门玄案[国语配音/中文字幕].Ru.Hun.Jin.Men.Xuan.An.2022.1080p.WEB-DL.H264.AAC-HDBWEB 0.65GB >> 正文

入魂:津门玄案[国语配音/中文字幕].Ru.Hun.Jin.Men.Xuan.An.2022.1080p.WEB-DL.H264.AAC-HDBWEB 0.65GB

2022年05月09日 22:19:17     电影发布:来源于网络     电影分类:国产电影     评论(0)    

◎译 名 入魂:津门玄案 / 扁鹊神针

◎年 代 2022

◎产 地 中国大陆

◎类 别 动作 / 悬疑 / 奇幻

◎语 言 汉语普通话

◎上映日期 2022-05-06(中国大陆)

◎IMDb链接 https://www.imdb.com/title//

◎豆瓣链接 https://movie.douban.com/subject/35231380/

◎导 演 朱江 Jiang Zhu (id:1411578)

◎演 员 张峻鸣 Junming Zhang (id:1356938)

谭晓凡 Xiaofan Tan (id:1411237)

林雪飘 Xuepiao Lin (id:1433585)

郭佳伊 Jiayi Guo (id:1383482)

沈凯 Kai Shen (id:1350011)

李彦锋 Yanfeng Li (id:1415607)

张春仲 Chunzhong Zhang (id:1318275)

赵擎 Qing Zhao (id:1322753)

李斐然 Feiran Li (id:1469836)

◎简 介

民国时期,鱼龙混杂的津门码头风云再起,漕运与青龙帮为争夺生意大打出手。扁鹊神针传人秦凡前去当和事佬,却失手“打死”两个帮派兄弟,被扣上杀人偷尸越狱的恶徒之名,遭到警察和两个帮派合力追捕。完全不记得自己如何逃出大牢的秦凡决定亲自查出偷尸者以及两个小弟的真正死因来自证清白,在抽丝剥茧的查证过程中,他发现帮派火拼的背后是洋人想要暗度陈仓将大量毒品运进中国的诡计。大烟馆布满了整个码头,洋人的祸国阴谋不断残害百姓,秦凡能否安然脱身?又该如何制止洋人的恶行?

  1. ##### MediaInfo ######

  2. General

  3. Complete name : 入魂:津门玄案.Ru.Hun.Jin.Men.Xuan.An.2022.1080p.WEB-DL.H264.AAC-HDBWEB.mp4

  4. Format : MPEG-4

  5. Format profile : Base Media

  6. Codec ID : isom (isom/iso2/avc1/mp41)

  7. File size : 664 MiB

  8. Duration : 1 h 22 min

  9. Overall bit rate : 1 128 kb/s

  10. Writing application : Lavf58.17.103

  11. Video

  12. ID : 1

  13. Format : AVC

  14. Format/Info : Advanced Video Codec

  15. Format profile : [email protected]

  16. Format settings : CABAC / 3 Ref Frames

  17. Format settings, CABAC : Yes

  18. Format settings, Reference frames : 3 frames

  19. Codec ID : avc1

  20. Codec ID/Info : Advanced Video Coding

  21. Duration : 1 h 22 min

  22. Bit rate : 933 kb/s

  23. Width : 1 920 pixels

  24. Height : 728 pixels

  25. Display aspect ratio : 2.637

  26. Frame rate mode : Constant

  27. Frame rate : 24.000 FPS

  28. Color space : YUV

  29. Chroma subsampling : 4:2:0

  30. Bit depth : 8 bits

  31. Scan type : Progressive

  32. Bits/(Pixel*Frame) : 0.028

  33. Stream size : 548 MiB (83%)

  34. Color range : Limited

  35. Color primaries : BT.709

  36. Transfer characteristics : BT.709

  37. Matrix coefficients : BT.709

  38. Codec configuration box : avcC

  39. Audio

  40. ID : 2

  41. Format : AAC LC

  42. Format/Info : Advanced Audio Codec Low Complexity

  43. Codec ID : mp4a-40-2

  44. Duration : 1 h 22 min

  45. Bit rate mode : Constant

  46. Bit rate : 192 kb/s

  47. Channel(s) : 2 channels

  48. Channel layout : L R

  49. Sampling rate : 44.1 kHz

  50. Frame rate : 43.066 FPS (1024 SPF)

  51. Compression mode : Lossy

  52. Stream size : 112 MiB (17%)

  53. Default : Yes

  54. Alternate group : 1


复制代码




文件下载


除非特别注明,本文『入魂:津门玄案[国语配音/中文字幕].Ru.Hun.Jin.Men.Xuan.An.2022.1080p.WEB-DL.H264.AAC-HDBWEB 0.65GB』来源于互联网机器人自动抓取,非本站原创。 浮游电影网不对本文拥有版权,如有侵犯,请联系邮箱:fuyouu#yandex.com[#换成@]投诉。我们会在15个工作日内删除。 但烦请转载时请标明出处:“本文转载于『浮游电影网』,原文地址:https://www.fuyouu.com/22039.html

评论吧骚年!

发表你的见解   

昵称*

E-mail*(建议输入,以便收到博主回复的提示邮件)

验证码*

您可以使用eMule或eMule Mod(Windows)、aMule(Win、Linux、Mac)等软件下载eD2k链接。。
eMule收藏集(.emulecollection)文件是您选中的所有链接的列表文件。eMule可以直接下载它们。
按住SHIFT键选择可以选中多个选择框。
可用文件名和大小选择器来选择文件。
文件名选择器帮您根据文件名称或后缀来选择文件。不分大小写。
符号使用:
和:空格( )、+
不包含:-
或:|
转义:一对英文引号("");
匹配开头:^
匹配结尾:$
例如:
选中所有名称中包含有“eMule”或“0.49c”字眼,但不包含有“exe”字眼的:emule|0.49c -exe
选中所有名称的开头是“eMule”,结尾是“0.49c”的:^emule 0.49c$
选中所有名称中带有“eMule 0.49c”的(必须是“eMule 0.49c”,中间没有别的字符,不能是“eMule fake 0.49c”),需要转义:"emule 0.49c"
大小选择器帮您根据文件大小选择文件。