当前位置: 首页 >> 海外电影 >> 维奥莱特[中文字幕].Violette.2013.1080p.BluRay.DTS.x265-10bit-ENTHD 7.30GB >> 正文

维奥莱特[中文字幕].Violette.2013.1080p.BluRay.DTS.x265-10bit-ENTHD 7.30GB

2022年05月09日 22:18:25     电影发布:来源于网络     电影分类:海外电影     评论(0)    

◎译 名 维奥莱特 / 盛开紫罗兰(台) / 字里芳华(港)

◎片 名 Violette

◎年 代 2013

◎产 地 法国

◎类 别 传记

◎语 言 法语

◎上映日期 2013-10-13(法罗群岛)

◎IMDb链接 https://www.imdb.com/title/tt2976920/

◎豆瓣评分 7.7/10 (402人评价)

◎豆瓣链接 https://movie.douban.com/subject/24870841/

◎片 长 139分钟

◎导 演 马丁·波渥斯 Martin Provost (id:1294949)

◎编 剧 马丁·波渥斯 Martin Provost (id:1294949)

◎演 员 艾曼纽·德芙 Emmanuelle Devos (id:1048261)

桑德琳娜·基贝兰 Sandrine Kiberlain (id:1032419)

奥利维埃·古尔梅 Olivier Gourmet (id:1012611)

马德琳·封丹 Madeline Fontaine (id:1283945)

◎简 介

二十世纪法国女作家薇奥丽,经过人生情感挫败以及与同性恋丈夫的短暂婚姻后,展开了写作生涯,并在巴黎遇见生命贵人西蒙波娃。当她捧着以半生爱欲写成的小说到波娃面前时,波娃被她的才华与自我挖掘的能量所吸引,决定帮她付梓出版。然而,薇奥丽也从这天起,无法抑止自己对西蒙波娃的迷恋,渴求更多的关注,无奈只能以文字升华一切。

  1. ##### MediaInfo ######

  2. General

  3. Unique ID : 226538543680598572378281817227436893615 (0xAA6DBC8A2A4C57FD285EFA89221E25AF)

  4. Complete name : Violette.2013.1080p.BluRay.DTS.x265-10bit-ENTHD.mkv

  5. Format : Matroska

  6. Format version : Version 4

  7. File size : 7.30 GiB

  8. Duration : 2 h 18 min

  9. Overall bit rate : 7 536 kb/s

  10. Movie name : Violette 2013 1080p BluRay DTS x265-10bit-HDS

  11. Encoded date : UTC 2022-05-09 06:26:05

  12. Writing application : mkvmerge v38.0.0 ('The Silent Type') 64-bit

  13. Writing library : libebml v1.3.9 + libmatroska v1.5.2

  14. Video

  15. ID : 1

  16. Format : HEVC

  17. Format/Info : High Efficiency Video Coding

  18. Format profile : Main [email protected]@High

  19. Codec ID : V_MPEGH/ISO/HEVC

  20. Duration : 2 h 18 min

  21. Bit rate : 6 003 kb/s

  22. Width : 1 920 pixels

  23. Height : 1 036 pixels

  24. Display aspect ratio : 1.85:1

  25. Frame rate mode : Constant

  26. Frame rate : 24.000 FPS

  27. Color space : YUV

  28. Chroma subsampling : 4:2:0

  29. Bit depth : 10 bits

  30. Bits/(Pixel*Frame) : 0.126

  31. Stream size : 5.81 GiB (80%)

  32. Title : @HDSky

  33. Writing library : x265 - H.265/HEVC codec

  34. Default : Yes

  35. Forced : No

  36. Audio

  37. ID : 2

  38. Format : DTS

  39. Format/Info : Digital Theater Systems

  40. Codec ID : A_DTS

  41. Duration : 2 h 18 min

  42. Bit rate mode : Constant

  43. Bit rate : 1 509 kb/s

  44. Channel(s) : 6 channels

  45. Channel layout : C L R Ls Rs LFE

  46. Sampling rate : 48.0 kHz

  47. Frame rate : 93.750 FPS (512 SPF)

  48. Bit depth : 24 bits

  49. Compression mode : Lossy

  50. Stream size : 1.46 GiB (20%)

  51. Title : French

  52. Language : French

  53. Default : Yes

  54. Forced : No

  55. Text #1

  56. ID : 3

  57. Format : PGS

  58. Muxing mode : zlib

  59. Codec ID : S_HDMV/PGS

  60. Codec ID/Info : Picture based subtitle format used on BDs/HD-DVDs

  61. Duration : 2 h 13 min

  62. Bit rate : 21.7 kb/s

  63. Count of elements : 2601

  64. Stream size : 20.7 MiB (0%)

  65. Title : CHS

  66. Language : Chinese

  67. Default : Yes

  68. Forced : No

  69. Text #2

  70. ID : 4

  71. Format : PGS

  72. Muxing mode : zlib

  73. Codec ID : S_HDMV/PGS

  74. Codec ID/Info : Picture based subtitle format used on BDs/HD-DVDs

  75. Duration : 2 h 13 min

  76. Bit rate : 22.2 kb/s

  77. Count of elements : 2601

  78. Stream size : 21.2 MiB (0%)

  79. Title : CHT

  80. Language : Chinese

  81. Default : No

  82. Forced : No

  83. Menu

  84. 00:00:00.000 : en:Chapter 01

  85. 00:02:05.375 : en:Chapter 02

  86. 00:13:52.125 : en:Chapter 03

  87. 00:20:41.583 : en:Chapter 04

  88. 00:39:31.625 : en:Chapter 05

  89. 00:56:40.708 : en:Chapter 06

  90. 01:10:03.208 : en:Chapter 07

  91. 01:27:14.208 : en:Chapter 08

  92. 01:38:08.042 : en:Chapter 09

  93. 01:57:18.792 : en:Chapter 10

  94. 02:09:05.042 : en:Chapter 11

  95. 02:13:59.000 : en:Chapter 12


复制代码



文件下载


除非特别注明,本文『维奥莱特[中文字幕].Violette.2013.1080p.BluRay.DTS.x265-10bit-ENTHD 7.30GB』来源于互联网机器人自动抓取,非本站原创。 浮游电影网不对本文拥有版权,如有侵犯,请联系邮箱:fuyouu#yandex.com[#换成@]投诉。我们会在15个工作日内删除。 但烦请转载时请标明出处:“本文转载于『浮游电影网』,原文地址:https://www.fuyouu.com/22038.html

评论吧骚年!

发表你的见解   

昵称*

E-mail*(建议输入,以便收到博主回复的提示邮件)

验证码*

您可以使用eMule或eMule Mod(Windows)、aMule(Win、Linux、Mac)等软件下载eD2k链接。。
eMule收藏集(.emulecollection)文件是您选中的所有链接的列表文件。eMule可以直接下载它们。
按住SHIFT键选择可以选中多个选择框。
可用文件名和大小选择器来选择文件。
文件名选择器帮您根据文件名称或后缀来选择文件。不分大小写。
符号使用:
和:空格( )、+
不包含:-
或:|
转义:一对英文引号("");
匹配开头:^
匹配结尾:$
例如:
选中所有名称中包含有“eMule”或“0.49c”字眼,但不包含有“exe”字眼的:emule|0.49c -exe
选中所有名称的开头是“eMule”,结尾是“0.49c”的:^emule 0.49c$
选中所有名称中带有“eMule 0.49c”的(必须是“eMule 0.49c”,中间没有别的字符,不能是“eMule fake 0.49c”),需要转义:"emule 0.49c"
大小选择器帮您根据文件大小选择文件。