当前位置: 首页 >> 欧美电影 >> 继父[简繁英字幕].The.Stepfather.2009.1080p.BluRay.DTS.x265-10bit-ENTHD 7.17GB >> 正文

继父[简繁英字幕].The.Stepfather.2009.1080p.BluRay.DTS.x265-10bit-ENTHD 7.17GB

2022年05月09日 22:16:38     电影发布:来源于网络     电影分类:欧美电影     评论(0)    

◎译 名 继父 / 继父疼死你(豆友译名) / 后爹疼死你(豆友译名)

◎片 名 The Stepfather

◎年 代 2009

◎产 地 美国

◎类 别 悬疑 / 惊悚

◎语 言 英语 / 德语

◎上映日期 2009-10-16(美国)

◎IMDb链接 https://www.imdb.com/title/tt0814335/

◎豆瓣评分 5.8/10 (6339人评价)

◎豆瓣链接 https://movie.douban.com/subject/2252771/

◎片 长 101分钟

◎导 演 尼尔森·麦科米克 Nelson McCormick (id:1326461)

◎编 剧 J·S·卡多内 J.S. Cardone (id:1028070)

唐纳德·维斯雷克 Donald E. Westlake (id:1009878)

布赖恩·加菲尔德 Brian Garfield (id:1284569)

◎演 员 迪伦·沃尔什 Dylan Walsh (id:1040573)

雪拉·渥德 Sela Ward (id:1010583)

佩恩·拜德格雷 Penn Badgley (id:1041110)

艾梅柏·希尔德 Amber Heard (id:1044702)

雪莉·斯蒂琳费尔德 Sherry Stringfield (id:1009390)

佩姬-图柯 Paige Turco (id:1157129)

乔恩·坦尼 Jon Tenney (id:1159716)

南茜·林韩·查尔斯 Nancy Linehan Charles (id:1075359)

布里登·勒马斯特斯 Braeden Lemasters (id:1004898)

迪尔德丽·罗夫乔 Deirdre Lovejoy (id:1125327)

斯凯勒·塞缪尔斯 Skyler Samuels (id:1202302)

詹森·威尔斯 Jason Wiles (id:1044869)

杰萨琳·吉尔西格 Jessalyn Gilsig (id:1036314)

普莱德·格林 Pride Grinn (id:1188347)

萨凡纳·兰瑟姆 Savannah Lathem (id:1358904)

Carmen Mormino Carmen Mormino (id:1133372)

维塔利·范思哲 Vitaliy Versace (id:1016887)

李恺悦 (id:1429845)

J·S·卡多内 J.S. Cardone (id:1028070)

查理·克劳泽 Charlie Clouser (id:1009948)

莉莎·朗敦 Lisa London (id:1290267)

Tim Eckel Tim Eckel (id:1282976)

琳·保罗 Lyn Paolo (id:1293923)

迈克·史密斯 Mike Smith (id:1297908)

克里斯汀·布拉南 Kristen Branan (id:1078302)

拉乌尔·博洛尼尼 Raoul Bolognini (id:1174697)

埃德森·威廉姆斯 Edson Williams (id:1043237)

罗科·帕西尼诺 Rocco Passionino (id:1294053)

凯西·艾伦 Casey Allen (id:1020582)

◎简 介

在名叫波特兰的小镇,单身母亲苏珊·哈丁(雪拉·渥德 Sela Ward 饰)和一双儿女肖恩(Braeden Lemasters 饰)、贝丝(Skyler Samuels 饰)共同生活在一起,其长子迈克尔(佩恩·拜德格雷 Penn Badgley 饰)则在外地的军校求学。某日,苏珊在超市遇见了名叫大卫·哈里斯(迪伦·沃尔什 Dylan Walsh 饰)的单身男子。大卫举止得当、言语风趣,俨然一个完美的居家好男人。两人相见恨晚,只有半年便到了谈婚论家的地步。哈丁一家对大卫颇为满意,独有迈克尔似乎心存顾忌。

他的顾忌不是没有道理。经过一段时间相处,迈克尔发现大卫温柔开朗的外表背后似乎隐藏着黑暗恐怖的一面,他试着调查大卫的一切,然而这也许为时已晚……

◎获奖情况 (共2项)

第12届美国青少年选择奖 (2010)

最佳恐怖/惊悚电影(提名)

最佳恐怖/惊悚电影男演员(提名)

└──佩恩·拜德格雷 (id:1041110)

  1. ##### MediaInfo ######

  2. General

  3. Unique ID : 237295723925702714293766651887597258708 (0xB2857E794C34EA8C06D6DDEC785207D4)

  4. Complete name : The.Stepfather.2009.1080p.BluRay.DTS.x265-10bit-ENTHD.mkv

  5. Format : Matroska

  6. Format version : Version 4

  7. File size : 7.17 GiB

  8. Duration : 1 h 42 min

  9. Overall bit rate : 10.0 Mb/s

  10. Movie name : The Stepfather 2009 1080p BluRay DTS x265-10bit-HDS

  11. Encoded date : UTC 2022-05-09 05:38:29

  12. Writing application : mkvmerge v67.0.0 ('Under Stars') 64-bit

  13. Writing library : libebml v1.4.2 + libmatroska v1.6.4

  14. Video

  15. ID : 1

  16. Format : HEVC

  17. Format/Info : High Efficiency Video Coding

  18. Format profile : Main [email protected]@High

  19. Codec ID : V_MPEGH/ISO/HEVC

  20. Duration : 1 h 42 min

  21. Bit rate : 8 494 kb/s

  22. Width : 1 920 pixels

  23. Height : 800 pixels

  24. Display aspect ratio : 2.40:1

  25. Frame rate mode : Constant

  26. Frame rate : 23.976 (24000/1001/53354) FPS

  27. Color space : YUV

  28. Chroma subsampling : 4:2:0

  29. Bit depth : 10 bits

  30. Bits/(Pixel*Frame) : 0.231

  31. Stream size : 6.06 GiB (85%)

  32. Title : @HDSky

  33. Writing library : x265 - H.265/HEVC codec

  34. Default : Yes

  35. Forced : No

  36. Audio

  37. ID : 2

  38. Format : DTS

  39. Format/Info : Digital Theater Systems

  40. Codec ID : A_DTS

  41. Duration : 1 h 42 min

  42. Bit rate mode : Constant

  43. Bit rate : 1 509 kb/s

  44. Channel(s) : 6 channels

  45. Channel layout : C L R Ls Rs LFE

  46. Sampling rate : 48.0 kHz

  47. Frame rate : 93.750 FPS (512 SPF)

  48. Bit depth : 24 bits

  49. Compression mode : Lossy

  50. Stream size : 1.08 GiB (15%)

  51. Title : English

  52. Language : English

  53. Default : Yes

  54. Forced : No

  55. Text #1

  56. ID : 3

  57. Format : PGS

  58. Muxing mode : zlib

  59. Codec ID : S_HDMV/PGS

  60. Codec ID/Info : Picture based subtitle format used on BDs/HD-DVDs

  61. Duration : 1 h 32 min

  62. Bit rate : 39.8 kb/s

  63. Count of elements : 2160

  64. Stream size : 26.4 MiB (0%)

  65. Title : ENG

  66. Language : English

  67. Default : Yes

  68. Forced : No

  69. Text #2

  70. ID : 4

  71. Format : PGS

  72. Muxing mode : zlib

  73. Codec ID : S_HDMV/PGS

  74. Codec ID/Info : Picture based subtitle format used on BDs/HD-DVDs

  75. Duration : 1 h 37 min

  76. Bit rate : 27.8 kb/s

  77. Count of elements : 2190

  78. Stream size : 19.4 MiB (0%)

  79. Title : CHS

  80. Language : Chinese

  81. Default : Yes

  82. Forced : No

  83. Text #3

  84. ID : 5

  85. Format : PGS

  86. Muxing mode : zlib

  87. Codec ID : S_HDMV/PGS

  88. Codec ID/Info : Picture based subtitle format used on BDs/HD-DVDs

  89. Duration : 1 h 37 min

  90. Bit rate : 29.8 kb/s

  91. Count of elements : 2190

  92. Stream size : 20.8 MiB (0%)

  93. Title : CHT

  94. Language : Chinese

  95. Default : Yes

  96. Forced : No

  97. Menu

  98. 00:00:00.000 : en:第 01 章

  99. 00:05:07.307 : en:第 02 章

  100. 00:13:12.000 : en:第 03 章

  101. 00:18:43.664 : en:第 04 章

  102. 00:24:20.834 : en:第 05 章

  103. 00:29:01.573 : en:第 06 章

  104. 00:37:09.853 : en:第 07 章

  105. 00:43:11.005 : en:第 08 章

  106. 00:47:03.195 : en:第 09 章

  107. 00:54:37.691 : en:第 10 章

  108. 01:01:23.805 : en:第 11 章

  109. 01:07:27.502 : en:第 12 章

  110. 01:12:24.507 : en:第 13 章

  111. 01:16:19.283 : en:第 14 章

  112. 01:22:45.752 : en:第 15 章

  113. 01:30:20.248 : en:第 16 章


复制代码



文件下载


除非特别注明,本文『继父[简繁英字幕].The.Stepfather.2009.1080p.BluRay.DTS.x265-10bit-ENTHD 7.17GB』来源于互联网机器人自动抓取,非本站原创。 浮游电影网不对本文拥有版权,如有侵犯,请联系邮箱:fuyouu#yandex.com[#换成@]投诉。我们会在15个工作日内删除。 但烦请转载时请标明出处:“本文转载于『浮游电影网』,原文地址:https://www.fuyouu.com/22037.html

评论吧骚年!

发表你的见解   

昵称*

E-mail*(建议输入,以便收到博主回复的提示邮件)

验证码*

您可以使用eMule或eMule Mod(Windows)、aMule(Win、Linux、Mac)等软件下载eD2k链接。。
eMule收藏集(.emulecollection)文件是您选中的所有链接的列表文件。eMule可以直接下载它们。
按住SHIFT键选择可以选中多个选择框。
可用文件名和大小选择器来选择文件。
文件名选择器帮您根据文件名称或后缀来选择文件。不分大小写。
符号使用:
和:空格( )、+
不包含:-
或:|
转义:一对英文引号("");
匹配开头:^
匹配结尾:$
例如:
选中所有名称中包含有“eMule”或“0.49c”字眼,但不包含有“exe”字眼的:emule|0.49c -exe
选中所有名称的开头是“eMule”,结尾是“0.49c”的:^emule 0.49c$
选中所有名称中带有“eMule 0.49c”的(必须是“eMule 0.49c”,中间没有别的字符,不能是“eMule fake 0.49c”),需要转义:"emule 0.49c"
大小选择器帮您根据文件大小选择文件。